  0
SECTION
  2
HEADER
  9
$ACADVER
  1
AC1021
  9
$ACADMAINTVER
 70
    50
  9
$DWGCODEPAGE
  3
ANSI_1252
  9
$INSBASE
 10
0.0
 20
0.0
 30
0.0
  9
$EXTMIN
 10
3386.6545877489
 20
2311.211134280059
 30
0.0
  9
$EXTMAX
 10
3819.195857866784
 20
2608.56919176298
 30
0.0
  9
$LIMMIN
 10
0.0
 20
0.0
  9
$LIMMAX
 10
12.0
 20
9.0
  9
$ORTHOMODE
 70
     0
  9
$REGENMODE
 70
     1
  9
$FILLMODE
 70
     1
  9
$QTEXTMODE
 70
     0
  9
$MIRRTEXT
 70
     0
  9
$LTSCALE
 40
1.0
  9
$ATTMODE
 70
     1
  9
$TEXTSIZE
 40
0.2
  9
$TRACEWID
 40
0.05
  9
$TEXTSTYLE
  7
Standard
  9
$CLAYER
  8
0
  9
$CELTYPE
  6
ByLayer
  9
$CECOLOR
 62
   256
  9
$CELTSCALE
 40
1.0
  9
$DISPSILH
 70
     0
  9
$DIMSCALE
 40
1.0
  9
$DIMASZ
 40
0.18
  9
$DIMEXO
 40
0.0625
  9
$DIMDLI
 40
0.38
  9
$DIMRND
 40
0.0
  9
$DIMDLE
 40
0.0
  9
$DIMEXE
 40
0.18
  9
$DIMTP
 40
0.0
  9
$DIMTM
 40
0.0
  9
$DIMTXT
 40
0.18
  9
$DIMCEN
 40
0.09
  9
$DIMTSZ
 40
0.0
  9
$DIMTOL
 70
     0
  9
$DIMLIM
 70
     0
  9
$DIMTIH
 70
     1
  9
$DIMTOH
 70
     1
  9
$DIMSE1
 70
     0
  9
$DIMSE2
 70
     0
  9
$DIMTAD
 70
     0
  9
$DIMZIN
 70
     0
  9
$DIMBLK
  1

  9
$DIMASO
 70
     1
  9
$DIMSHO
 70
     1
  9
$DIMPOST
  1

  9
$DIMAPOST
  1

  9
$DIMALT
 70
     0
  9
$DIMALTD
 70
     2
  9
$DIMALTF
 40
25.4
  9
$DIMLFAC
 40
1.0
  9
$DIMTOFL
 70
     0
  9
$DIMTVP
 40
0.0
  9
$DIMTIX
 70
     0
  9
$DIMSOXD
 70
     0
  9
$DIMSAH
 70
     0
  9
$DIMBLK1
  1

  9
$DIMBLK2
  1

  9
$DIMSTYLE
  2
Standard
  9
$DIMCLRD
 70
     0
  9
$DIMCLRE
 70
     0
  9
$DIMCLRT
 70
     0
  9
$DIMTFAC
 40
1.0
  9
$DIMGAP
 40
0.09
  9
$DIMJUST
 70
     0
  9
$DIMSD1
 70
     0
  9
$DIMSD2
 70
     0
  9
$DIMTOLJ
 70
     1
  9
$DIMTZIN
 70
     0
  9
$DIMALTZ
 70
     0
  9
$DIMALTTZ
 70
     0
  9
$DIMUPT
 70
     0
  9
$DIMDEC
 70
     4
  9
$DIMTDEC
 70
     4
  9
$DIMALTU
 70
     2
  9
$DIMALTTD
 70
     2
  9
$DIMTXSTY
  7
Standard
  9
$DIMAUNIT
 70
     1
  9
$DIMADEC
 70
     0
  9
$DIMALTRND
 40
0.0
  9
$DIMAZIN
 70
     0
  9
$DIMDSEP
 70
    46
  9
$DIMATFIT
 70
     3
  9
$DIMFRAC
 70
     0
  9
$DIMLDRBLK
  1

  9
$DIMLUNIT
 70
     2
  9
$DIMLWD
 70
    -2
  9
$DIMLWE
 70
    -2
  9
$DIMTMOVE
 70
     0
  9
$DIMFXL
 40
1.0
  9
$DIMFXLON
 70
     0
  9
$DIMJOGANG
 40
0.7853981633974483
  9
$DIMTFILL
 70
     0
  9
$DIMTFILLCLR
 70
     0
  9
$DIMARCSYM
 70
     0
  9
$DIMLTYPE
  6

  9
$DIMLTEX1
  6

  9
$DIMLTEX2
  6

  9
$LUNITS
 70
     2
  9
$LUPREC
 70
     4
  9
$SKETCHINC
 40
0.1
  9
$FILLETRAD
 40
0.0
  9
$AUNITS
 70
     0
  9
$AUPREC
 70
     0
  9
$MENU
  1
.
  9
$ELEVATION
 40
0.0
  9
$PELEVATION
 40
0.0
  9
$THICKNESS
 40
0.0
  9
$LIMCHECK
 70
     0
  9
$CHAMFERA
 40
0.0
  9
$CHAMFERB
 40
0.0
  9
$CHAMFERC
 40
0.0
  9
$CHAMFERD
 40
0.0
  9
$SKPOLY
 70
     0
  9
$TDCREATE
 40
2459816.764884259
  9
$TDUCREATE
 40
2459816.264884259
  9
$TDUPDATE
 40
2459816.764884259
  9
$TDUUPDATE
 40
2459816.264884259
  9
$TDINDWG
 40
0.0000231481
  9
$TDUSRTIMER
 40
0.0000231481
  9
$USRTIMER
 70
     1
  9
$ANGBASE
 50
0.0
  9
$ANGDIR
 70
     0
  9
$PDMODE
 70
     0
  9
$PDSIZE
 40
0.0
  9
$PLINEWID
 40
0.0
  9
$SPLFRAME
 70
     0
  9
$SPLINETYPE
 70
     6
  9
$SPLINESEGS
 70
     8
  9
$HANDSEED
  5
275
  9
$SURFTAB1
 70
     6
  9
$SURFTAB2
 70
     6
  9
$SURFTYPE
 70
     6
  9
$SURFU
 70
     6
  9
$SURFV
 70
     6
  9
$UCSBASE
  2

  9
$UCSNAME
  2

  9
$UCSORG
 10
0.0
 20
0.0
 30
0.0
  9
$UCSXDIR
 10
1.0
 20
0.0
 30
0.0
  9
$UCSYDIR
 10
0.0
 20
1.0
 30
0.0
  9
$UCSORTHOREF
  2

  9
$UCSORTHOVIEW
 70
     0
  9
$UCSORGTOP
 10
0.0
 20
0.0
 30
0.0
  9
$UCSORGBOTTOM
 10
0.0
 20
0.0
 30
0.0
  9
$UCSORGLEFT
 10
0.0
 20
0.0
 30
0.0
  9
$UCSORGRIGHT
 10
0.0
 20
0.0
 30
0.0
  9
$UCSORGFRONT
 10
0.0
 20
0.0
 30
0.0
  9
$UCSORGBACK
 10
0.0
 20
0.0
 30
0.0
  9
$PUCSBASE
  2

  9
$PUCSNAME
  2

  9
$PUCSORG
 10
0.0
 20
0.0
 30
0.0
  9
$PUCSXDIR
 10
1.0
 20
0.0
 30
0.0
  9
$PUCSYDIR
 10
0.0
 20
1.0
 30
0.0
  9
$PUCSORTHOREF
  2

  9
$PUCSORTHOVIEW
 70
     0
  9
$PUCSORGTOP
 10
0.0
 20
0.0
 30
0.0
  9
$PUCSORGBOTTOM
 10
0.0
 20
0.0
 30
0.0
  9
$PUCSORGLEFT
 10
0.0
 20
0.0
 30
0.0
  9
$PUCSORGRIGHT
 10
0.0
 20
0.0
 30
0.0
  9
$PUCSORGFRONT
 10
0.0
 20
0.0
 30
0.0
  9
$PUCSORGBACK
 10
0.0
 20
0.0
 30
0.0
  9
$USERI1
 70
     0
  9
$USERI2
 70
     0
  9
$USERI3
 70
     0
  9
$USERI4
 70
     0
  9
$USERI5
 70
     0
  9
$USERR1
 40
0.0
  9
$USERR2
 40
0.0
  9
$USERR3
 40
0.0
  9
$USERR4
 40
0.0
  9
$USERR5
 40
0.0
  9
$WORLDVIEW
 70
     1
  9
$SHADEDGE
 70
     3
  9
$SHADEDIF
 70
    70
  9
$TILEMODE
 70
     0
  9
$MAXACTVP
 70
    64
  9
$PINSBASE
 10
0.0
 20
0.0
 30
0.0
  9
$PLIMCHECK
 70
     0
  9
$PEXTMIN
 10
-3.179323264254881
 20
-3.79528158292931
 30
0.0
  9
$PEXTMAX
 10
293.8206767356985
 20
202.4547184170706
 30
0.0
  9
$PLIMMIN
 10
0.0
 20
0.0
  9
$PLIMMAX
 10
12.0
 20
9.0
  9
$UNITMODE
 70
     0
  9
$VISRETAIN
 70
     1
  9
$PLINEGEN
 70
     0
  9
$PSLTSCALE
 70
     1
  9
$TREEDEPTH
 70
  3020
  9
$CMLSTYLE
  2
Standard
  9
$CMLJUST
 70
     0
  9
$CMLSCALE
 40
1.0
  9
$PROXYGRAPHICS
 70
     1
  9
$MEASUREMENT
 70
     1
  9
$CELWEIGHT
370
    -1
  9
$ENDCAPS
280
     0
  9
$JOINSTYLE
280
     0
  9
$LWDISPLAY
290
     0
  9
$INSUNITS
 70
     4
  9
$HYPERLINKBASE
  1

  9
$STYLESHEET
  1

  9
$XEDIT
290
     1
  9
$CEPSNTYPE
380
     0
  9
$PSTYLEMODE
290
     1
  9
$FINGERPRINTGUID
  2
{520ABBE7-DA3A-E041-902F-E91EEDBDF6D4}
  9
$VERSIONGUID
  2
{7E15D789-2B4D-1D41-9DBE-502BB1259E4A}
  9
$EXTNAMES
290
     1
  9
$PSVPSCALE
 40
0.0
  9
$OLESTARTUP
290
     0
  9
$SORTENTS
280
   127
  9
$INDEXCTL
280
     0
  9
$HIDETEXT
280
     1
  9
$XCLIPFRAME
290
     0
  9
$HALOGAP
280
     0
  9
$OBSCOLOR
 70
   257
  9
$OBSLTYPE
280
     0
  9
$INTERSECTIONDISPLAY
280
     0
  9
$INTERSECTIONCOLOR
 70
   257
  9
$DIMASSOC
280
     2
  9
$PROJECTNAME
  1

  9
$CAMERADISPLAY
290
     0
  9
$LENSLENGTH
 40
50.0
  9
$CAMERAHEIGHT
 40
0.0
  9
$STEPSPERSEC
 40
2.0
  9
$STEPSIZE
 40
6.0
  9
$3DDWFPREC
 40
2.0
  9
$PSOLWIDTH
 40
0.25
  9
$PSOLHEIGHT
 40
4.0
  9
$LOFTANG1
 40
1.570796326794896
  9
$LOFTANG2
 40
1.570796326794896
  9
$LOFTMAG1
 40
0.0
  9
$LOFTMAG2
 40
0.0
  9
$LOFTPARAM
 70
     7
  9
$LOFTNORMALS
280
     1
  9
$LATITUDE
 40
0.0
  9
$LONGITUDE
 40
0.0
  9
$NORTHDIRECTION
 40
0.0
  9
$TIMEZONE
 70
     0
  9
$LIGHTGLYPHDISPLAY
280
     1
  9
$TILEMODELIGHTSYNCH
280
     1
  9
$CMATERIAL
347
11
  9
$SOLIDHIST
280
     0
  9
$SHOWHIST
280
     1
  9
$DWFFRAME
280
     2
  9
$DGNFRAME
280
     0
  9
$REALWORLDSCALE
290
     1
  9
$INTERFERECOLOR
 62
     1
  9
$INTERFEREOBJVS
345
33
  9
$INTERFEREVPVS
346
30
  9
$CSHADOW
280
     0
  9
$SHADOWPLANELOCATION
 40
0.0
  0
ENDSEC
  0
SECTION
  2
CLASSES
  0
CLASS
  1
ACDBDICTIONARYWDFLT
  2
AcDbDictionaryWithDefault
  3
ObjectDBX Classes
 90
        0
 91
        1
280
     0
281
     0
  0
CLASS
  1
MATERIAL
  2
AcDbMaterial
  3
ObjectDBX Classes
 90
     1153
 91
        3
280
     0
281
     0
  0
CLASS
  1
VISUALSTYLE
  2
AcDbVisualStyle
  3
ObjectDBX Classes
 90
     4095
 91
       24
280
     0
281
     0
  0
CLASS
  1
SCALE
  2
AcDbScale
  3
ObjectDBX Classes
 90
     1153
 91
       17
280
     0
281
     0
  0
CLASS
  1
TABLESTYLE
  2
AcDbTableStyle
  3
ObjectDBX Classes
 90
     4095
 91
        1
280
     0
281
     0
  0
CLASS
  1
MLEADERSTYLE
  2
AcDbMLeaderStyle
  3
ACDB_MLEADERSTYLE_CLASS
 90
     4095
 91
        1
280
     0
281
     0
  0
CLASS
  1
ACDBSECTIONVIEWSTYLE
  2
AcDbSectionViewStyle
  3
ObjectDBX Classes
 90
     1025
 91
        1
280
     0
281
     0
  0
CLASS
  1
ACDBDETAILVIEWSTYLE
  2
AcDbDetailViewStyle
  3
ObjectDBX Classes
 90
     1025
 91
        1
280
     0
281
     0
  0
CLASS
  1
RASTERVARIABLES
  2
AcDbRasterVariables
  3
ISM
 90
        0
 91
        1
280
     0
281
     0
  0
CLASS
  1
DICTIONARYVAR
  2
AcDbDictionaryVar
  3
ObjectDBX Classes
 90
        0
 91
        6
280
     0
281
     0
  0
CLASS
  1
CELLSTYLEMAP
  2
AcDbCellStyleMap
  3
ObjectDBX Classes
 90
     1152
 91
        2
280
     0
281
     0
  0
CLASS
  1
SORTENTSTABLE
  2
AcDbSortentsTable
  3
ObjectDBX Classes
 90
        0
 91
        1
280
     0
281
     0
  0
CLASS
  1
SUN
  2
AcDbSun
  3
SCENEOE
 90
     1153
 91
        1
280
     0
281
     0
  0
ENDSEC
  0
SECTION
  2
TABLES
  0
TABLE
  2
VPORT
  5
8
330
0
100
AcDbSymbolTable
 70
     1
  0
VPORT
  5
57
330
8
100
AcDbSymbolTableRecord
100
AcDbViewportTableRecord
  2
*Active
 70
     0
 10
0.0
 20
0.0
 11
1.0
 21
1.0
 12
3602.925222807842
 22
2459.890163021519
 13
0.0
 23
0.0
 14
1.0
 24
1.0
 15
0.0
 25
0.0
 16
0.0
 26
0.0
 36
1.0
 17
0.0
 27
0.0
 37
0.0
 40
297.3580574829216
 41
1.45461425790598
 42
50.0
 43
0.0
 44
0.0
 50
0.0
 51
0.0
 71
     0
 72
  1000
 73
     1
 74
     1
 75
     0
 76
     0
 77
     0
 78
     0
281
     0
 65
     1
110
0.0
120
0.0
130
0.0
111
1.0
121
0.0
131
0.0
112
0.0
122
1.0
132
0.0
 79
     0
146
0.0
 60
     3
 61
     5
292
     1
282
     1
141
0.0
142
0.0
 63
   250
421
  3355443
361
237
  0
ENDTAB
  0
TABLE
  2
LTYPE
  5
5
330
0
100
AcDbSymbolTable
 70
     2
  0
LTYPE
  5
5B
330
5
100
AcDbSymbolTableRecord
100
AcDbLinetypeTableRecord
  2
ByBlock
 70
     0
  3

 72
    65
 73
     0
 40
0.0
  0
LTYPE
  5
5C
330
5
100
AcDbSymbolTableRecord
100
AcDbLinetypeTableRecord
  2
ByLayer
 70
     0
  3

 72
    65
 73
     0
 40
0.0
  0
LTYPE
  5
5D
330
5
100
AcDbSymbolTableRecord
100
AcDbLinetypeTableRecord
  2
Continuous
 70
     0
  3
Solid line
 72
    65
 73
     0
 40
0.0
  0
LTYPE
  5
C4
330
5
100
AcDbSymbolTableRecord
100
AcDbLinetypeTableRecord
  2
Dash
 70
     0
  3

 72
    65
 73
     2
 40
3.4
 49
2.2
 74
     0
 49
-1.199999999999999
 74
     0
  0
ENDTAB
  0
TABLE
  2
LAYER
  5
2
330
0
100
AcDbSymbolTable
 70
     5
  0
LAYER
  5
54
330
2
100
AcDbSymbolTableRecord
100
AcDbLayerTableRecord
  2
0
 70
     0
 62
     7
  6
Continuous
370
    -3
390
F
347
21
  0
LAYER
  5
BC
330
2
100
AcDbSymbolTableRecord
100
AcDbLayerTableRecord
  2
_ARDEX - WELDTEC TANKING_
 70
     0
 62
     7
  6
Continuous
370
     9
390
F
347
21
  0
LAYER
  5
BE
330
2
100
AcDbSymbolTableRecord
100
AcDbLayerTableRecord
  2
_ARDEX - BUTYNOL_
 70
     0
 62
     7
  6
Continuous
370
    50
390
F
347
21
  0
LAYER
  5
172
330
2
100
AcDbSymbolTableRecord
100
AcDbLayerTableRecord
  2
_ARDEX - WELDTEC TANKING_-2
 70
     0
 62
     7
  6
Continuous
370
     9
390
F
347
21
  0
LAYER
  5
186
330
2
100
AcDbSymbolTableRecord
100
AcDbLayerTableRecord
  2
Defpoints
 70
     0
 62
     7
  6
Continuous
290
     0
370
    -3
390
F
347
21
  0
ENDTAB
  0
TABLE
  2
STYLE
  5
3
330
0
100
AcDbSymbolTable
 70
    11
  0
STYLE
  5
55
330
3
100
AcDbSymbolTableRecord
100
AcDbTextStyleTableRecord
  2
Standard
 70
     0
 40
0.0
 41
1.0
 50
0.0
 71
     0
 42
0.2
  3
txt
  4

  0
STYLE
  5
5A
330
3
100
AcDbSymbolTableRecord
100
AcDbTextStyleTableRecord
  2
Annotative
 70
     0
 40
0.0
 41
1.0
 50
0.0
 71
     0
 42
0.2
  3
txt
  4

1001
AcadAnnotative
1000
AnnotativeData
1002
{
1070
     1
1070
     1
1002
}
  0
STYLE
  5
14D
330
3
100
AcDbSymbolTableRecord
100
AcDbTextStyleTableRecord
  2
Swis721 Lt BT
 70
     0
 40
4.0
 41
1.0
 50
0.0
 71
     0
 42
0.2
  3
swissl.ttf
  4

1001
ACAD
1000
Swis721 Lt BT
1071
       34
  0
STYLE
  5
210
330
3
100
AcDbSymbolTableRecord
100
AcDbTextStyleTableRecord
  2
Swis721 Lt BT_1
 70
     0
 40
1.5
 41
0.9
 50
0.0
 71
     0
 42
0.2
  3
swissl.ttf
  4

1001
ACAD
1000
Swis721 Lt BT
1071
       34
  0
STYLE
  5
213
330
3
100
AcDbSymbolTableRecord
100
AcDbTextStyleTableRecord
  2
Swis721 Lt BT_2
 70
     0
 40
2.1
 41
0.9
 50
0.0
 71
     0
 42
0.2
  3
swissl.ttf
  4

1001
ACAD
1000
Swis721 Lt BT
1071
       34
  0
STYLE
  5
216
330
3
100
AcDbSymbolTableRecord
100
AcDbTextStyleTableRecord
  2
Swis721 Lt BT_B
 70
     0
 40
0.7000000000000001
 41
0.9
 50
0.0
 71
     0
 42
0.2
  3

  4

1001
ACAD
1000
Swis721 Lt BT
1071
 33554466
  0
STYLE
  5
218
330
3
100
AcDbSymbolTableRecord
100
AcDbTextStyleTableRecord
  2
Swis721 Lt BT_3
 70
     0
 40
0.7000000000000001
 41
0.9
 50
0.0
 71
     0
 42
0.2
  3
swissl.ttf
  4

1001
ACAD
1000
Swis721 Lt BT
1071
       34
  0
STYLE
  5
223
330
3
100
AcDbSymbolTableRecord
100
AcDbTextStyleTableRecord
  2
Arial Black
 70
     0
 40
5.0
 41
0.9
 50
0.0
 71
     0
 42
0.2
  3

  4

1001
ACAD
1000
Arial Black
1071
       34
  0
STYLE
  5
229
330
3
100
AcDbSymbolTableRecord
100
AcDbTextStyleTableRecord
  2
Swis721 Lt BT_4
 70
     0
 40
2.0
 41
1.0
 50
0.0
 71
     0
 42
0.2
  3
swissl.ttf
  4

1001
ACAD
1000
Swis721 Lt BT
1071
       34
  0
STYLE
  5
22B
330
3
100
AcDbSymbolTableRecord
100
AcDbTextStyleTableRecord
  2
Swis721 Lt BT_5
 70
     0
 40
3.0
 41
1.0
 50
0.0
 71
     0
 42
0.2
  3
swissl.ttf
  4

1001
ACAD
1000
Swis721 Lt BT
1071
       34
  0
STYLE
  5
22D
330
3
100
AcDbSymbolTableRecord
100
AcDbTextStyleTableRecord
  2
Arial
 70
     0
 40
5.0
 41
1.0
 50
0.0
 71
     0
 42
0.2
  3
arial.ttf
  4

1001
ACAD
1000
Arial
1071
       34
  0
ENDTAB
  0
TABLE
  2
VIEW
  5
6
330
0
100
AcDbSymbolTable
 70
     0
  0
ENDTAB
  0
TABLE
  2
UCS
  5
7
330
0
100
AcDbSymbolTable
 70
     0
  0
ENDTAB
  0
TABLE
  2
APPID
  5
9
330
0
100
AcDbSymbolTable
 70
     4
  0
APPID
  5
56
330
9
100
AcDbSymbolTableRecord
100
AcDbRegAppTableRecord
  2
ACAD
 70
     0
  0
APPID
  5
5E
330
9
100
AcDbSymbolTableRecord
100
AcDbRegAppTableRecord
  2
AcadAnnotative
 70
     0
  0
APPID
  5
78
330
9
100
AcDbSymbolTableRecord
100
AcDbRegAppTableRecord
  2
REVIT
 70
     0
  0
APPID
  5
26E
330
9
100
AcDbSymbolTableRecord
100
AcDbRegAppTableRecord
  2
ACAD_MLEADERVER
 70
     0
  0
ENDTAB
  0
TABLE
  2
DIMSTYLE
  5
A
330
0
100
AcDbSymbolTable
 70
     3
100
AcDbDimStyleTable
 71
     1
340
17F
  0
DIMSTYLE
105
58
330
A
100
AcDbSymbolTableRecord
100
AcDbDimStyleTableRecord
  2
Standard
 70
     0
340
55
  0
DIMSTYLE
105
59
330
A
100
AcDbSymbolTableRecord
100
AcDbDimStyleTableRecord
  2
Annotative
 70
     0
340
55
1001
AcadAnnotative
1000
AnnotativeData
1002
{
1070
     1
1070
     1
1002
}
  0
DIMSTYLE
105
17F
102
{ACAD_REACTORS
330
184
102
}
330
A
100
AcDbSymbolTableRecord
100
AcDbDimStyleTableRecord
  2
_ARDEX__-_2mm
 70
     0
  3
<>
 40
304.8
 41
0.0078740157480315
 44
0.0091863517060367
 46
0.0144356955380578
 49
0.0328083989501312
 73
     0
 74
     0
 77
     1
 90
        2
140
4.221260218902058
145
1.0
147
0.0032808398950131
172
     1
173
     1
174
     1
179
     4
271
     0
275
     1
290
     1
340
14D
343
180
344
180
  0
ENDTAB
  0
TABLE
  2
BLOCK_RECORD
  5
1
330
0
100
AcDbSymbolTable
 70
    17
  0
BLOCK_RECORD
  5
70
102
{ACAD_XDICTIONARY
360
235
102
}
330
1
100
AcDbSymbolTableRecord
100
AcDbBlockTableRecord
  2
*Model_Space
340
73
 70
     0
280
     1
281
     0
  0
BLOCK_RECORD
  5
6C
330
1
100
AcDbSymbolTableRecord
100
AcDbBlockTableRecord
  2
*Paper_Space
340
6F
 70
     0
280
     1
281
     0
  0
BLOCK_RECORD
  5
74
330
1
100
AcDbSymbolTableRecord
100
AcDbBlockTableRecord
  2
*Paper_Space0
340
77
 70
     0
280
     1
281
     0
  0
BLOCK_RECORD
  5
BD
330
1
100
AcDbSymbolTableRecord
100
AcDbBlockTableRecord
  2
_ARDEX_ Lines - WPM240 Primer-754984-_HD_ - AS-07 TANKED WALL_ROOF DECK JUNCTION
340
0
102
{BLKREFS
331
C2
102
}
 70
     0
280
     1
281
     0
  0
BLOCK_RECORD
  5
C3
330
1
100
AcDbSymbolTableRecord
100
AcDbBlockTableRecord
  2
_ARDEX_ Lines - WPM 5000HD DPM Underflashing Membrane-755071-_HD_ - AS-07 TANKED WALL_ROOF DECK JUNCTION
340
0
102
{BLKREFS
331
C8
102
}
 70
     0
280
     1
281
     0
  0
BLOCK_RECORD
  5
C9
330
1
100
AcDbSymbolTableRecord
100
AcDbBlockTableRecord
  2
_ARDEX_ Concrete Base 7 - _ARDEX_ Concrete Base 7-754219-_HD_ - AS-07 TANKED WALL_ROOF DECK JUNCTION
340
0
102
{BLKREFS
331
E0
102
}
 70
     0
280
     1
281
     0
  0
BLOCK_RECORD
  5
E1
330
1
100
AcDbSymbolTableRecord
100
AcDbBlockTableRecord
  2
_ARDEX_ Lining - Various - Concrete Wall 150-754656-_HD_ - AS-07 TANKED WALL_ROOF DECK JUNCTION
340
0
102
{BLKREFS
331
F0
102
}
 70
     0
280
     1
281
     0
  0
BLOCK_RECORD
  5
F1
330
1
100
AcDbSymbolTableRecord
100
AcDbBlockTableRecord
  2
_ARDEX_ Waterstop - _ARDEX_ Water Stop-708192-_HD_ - AS-07 TANKED WALL_ROOF DECK JUNCTION
340
0
102
{BLKREFS
331
FD
102
}
 70
     0
280
     1
281
     0
  0
BLOCK_RECORD
  5
FE
330
1
100
AcDbSymbolTableRecord
100
AcDbBlockTableRecord
  2
_ARDEX_ Lines - WPM 5000HD DPM Membrane-757949-_HD_ - AS-07 TANKED WALL_ROOF DECK JUNCTION
340
0
102
{BLKREFS
331
102
102
}
 70
     0
280
     1
281
     0
  0
BLOCK_RECORD
  5
103
330
1
100
AcDbSymbolTableRecord
100
AcDbBlockTableRecord
  2
_ARDEX_ Lines - WPM 5000HD DPM Membrane-757950-_HD_ - AS-07 TANKED WALL_ROOF DECK JUNCTION
340
0
102
{BLKREFS
331
107
102
}
 70
     0
280
     1
281
     0
  0
BLOCK_RECORD
  5
108
330
1
100
AcDbSymbolTableRecord
100
AcDbBlockTableRecord
  2
_ARDEX_ Lines - WPM 5000HD DPM Membrane-757951-_HD_ - AS-07 TANKED WALL_ROOF DECK JUNCTION
340
0
102
{BLKREFS
331
10C
102
}
 70
     0
280
     1
281
     0
  0
BLOCK_RECORD
  5
10D
330
1
100
AcDbSymbolTableRecord
100
AcDbBlockTableRecord
  2
_ARDEX_ Lines - WPM 5000HD DPM Membrane-757952-_HD_ - AS-07 TANKED WALL_ROOF DECK JUNCTION
340
0
102
{BLKREFS
331
111
102
}
 70
     0
280
     1
281
     0
  0
BLOCK_RECORD
  5
112
330
1
100
AcDbSymbolTableRecord
100
AcDbBlockTableRecord
  2
_ARDEX_ Lines - WPM 5000HD DPM Membrane-757953-_HD_ - AS-07 TANKED WALL_ROOF DECK JUNCTION
340
0
102
{BLKREFS
331
116
102
}
 70
     0
280
     1
281
     0
  0
BLOCK_RECORD
  5
117
330
1
100
AcDbSymbolTableRecord
100
AcDbBlockTableRecord
  2
_ARDEX_ Pressure Bar 10801 - _ARDEX_ Waterproofing Membrane-757924-_HD_ - AS-07 TANKED WALL_ROOF DECK JUNCTION
340
0
102
{BLKREFS
331
149
102
}
 70
     0
280
     1
281
     0
  0
BLOCK_RECORD
  5
180
330
1
100
AcDbSymbolTableRecord
100
AcDbBlockTableRecord
  2
_Oblique
340
0
102
{BLKREFS
102
}
 70
     0
280
     1
281
     0
  0
BLOCK_RECORD
  5
187
330
1
100
AcDbSymbolTableRecord
100
AcDbBlockTableRecord
  2
DIMBLOCK1-_HD_ - AS-07 TANKED WALL_ROOF DECK JUNCTION
340
0
 70
     0
280
     1
281
     0
  0
BLOCK_RECORD
  5
198
330
1
100
AcDbSymbolTableRecord
100
AcDbBlockTableRecord
  2
_ARDEX_ Landscape Title block Weldtec Tanking - ARDEX Logo_dwg-792302-TANKED WALL-ROOF DECK JUNCTION
340
0
102
{BLKREFS
331
225
102
}
 70
     0
280
     1
281
     0
  0
BLOCK_RECORD
  5
1FB
330
1
100
AcDbSymbolTableRecord
100
AcDbBlockTableRecord
  2
_ARDEX_ Landscape Title block Weldtec Tanking - WPM 5000HD-769546-TANKED WALL-ROOF DECK JUNCTION
340
0
102
{BLKREFS
331
228
102
}
 70
     0
280
     1
281
     0
  0
ENDTAB
  0
ENDSEC
  0
SECTION
  2
BLOCKS
  0
BLOCK
  5
71
330
70
100
AcDbEntity
  8
0
100
AcDbBlockBegin
  2
*Model_Space
 70
     0
 10
0.0
 20
0.0
 30
0.0
  3
*Model_Space
  1

  0
ENDBLK
  5
72
330
70
100
AcDbEntity
  8
0
100
AcDbBlockEnd
  0
BLOCK
  5
6D
330
6C
100
AcDbEntity
 67
     1
  8
0
100
AcDbBlockBegin
  2
*Paper_Space
 70
     0
 10
0.0
 20
0.0
 30
0.0
  3
*Paper_Space
  1

  0
ENDBLK
  5
6E
330
6C
100
AcDbEntity
 67
     1
  8
0
100
AcDbBlockEnd
  0
BLOCK
  5
75
330
74
100
AcDbEntity
 67
     1
  8
0
100
AcDbBlockBegin
  2
*Paper_Space0
 70
     0
 10
0.0
 20
0.0
 30
0.0
  3
*Paper_Space0
  1

  0
ENDBLK
  5
76
330
74
100
AcDbEntity
 67
     1
  8
0
100
AcDbBlockEnd
  0
BLOCK
  5
C0
330
BD
100
AcDbEntity
  8
0
100
AcDbBlockBegin
  2
_ARDEX_ Lines - WPM240 Primer-754984-_HD_ - AS-07 TANKED WALL_ROOF DECK JUNCTION
 70
     0
 10
0.0
 20
0.0
 30
0.0
  3
_ARDEX_ Lines - WPM240 Primer-754984-_HD_ - AS-07 TANKED WALL_ROOF DECK JUNCTION
  1

  0
LINE
  5
BF
330
BD
100
AcDbEntity
  8
_ARDEX - BUTYNOL_
100
AcDbLine
 10
269.582258457849
 20
0.0
 30
0.0
 11
-0.0000000000021657
 21
0.0
 31
0.0
1001
REVIT
1002
{
1070
     1
1000
753690
1002
}
1002
{
1070
     5
1000
708929
1002
}
1002
{
1070
     3
1000
335612
1002
}
  0
ENDBLK
  5
C1
330
BD
100
AcDbEntity
  8
0
100
AcDbBlockEnd
  0
BLOCK
  5
C6
330
C3
100
AcDbEntity
  8
0
100
AcDbBlockBegin
  2
_ARDEX_ Lines - WPM 5000HD DPM Underflashing Membrane-755071-_HD_ - AS-07 TANKED WALL_ROOF DECK JUNCTION
 70
     0
 10
0.0
 20
0.0
 30
0.0
  3
_ARDEX_ Lines - WPM 5000HD DPM Underflashing Membrane-755071-_HD_ - AS-07 TANKED WALL_ROOF DECK JUNCTION
  1

  0
LINE
  5
C5
330
C3
100
AcDbEntity
  8
_ARDEX - BUTYNOL_
  6
Dash
 62
   133
420
  7589074
370
   100
100
AcDbLine
 10
199.9999999999971
 20
0.0
 30
0.0
 11
-0.0000000000027072
 21
0.0
 31
0.0
1001
REVIT
1002
{
1070
     1
1000
753693
1002
}
1002
{
1070
     5
1000
713607
1002
}
1002
{
1070
     3
1000
352413
1002
}
  0
ENDBLK
  5
C7
330
C3
100
AcDbEntity
  8
0
100
AcDbBlockEnd
  0
BLOCK
  5
DE
330
C9
100
AcDbEntity
  8
0
100
AcDbBlockBegin
  2
_ARDEX_ Concrete Base 7 - _ARDEX_ Concrete Base 7-754219-_HD_ - AS-07 TANKED WALL_ROOF DECK JUNCTION
 70
     0
 10
0.0
 20
0.0
 30
0.0
  3
_ARDEX_ Concrete Base 7 - _ARDEX_ Concrete Base 7-754219-_HD_ - AS-07 TANKED WALL_ROOF DECK JUNCTION
  1

  0
HATCH
  5
D8
330
C9
100
AcDbEntity
  8
_ARDEX - WELDTEC TANKING_
 62
     8
420
  8421504
100
AcDbHatch
 10
0.0
 20
0.0
 30
0.0
210
0.0
220
0.0
230
1.0
  2
FP_1
 70
     0
 71
     0
 91
        1
 92
        1
 93
       14
 72
     1
 10
149.9999999999972
 20
254.3117629888915
 11
-0.0000000000030127
 21
254.3117629888915
 72
     1
 10
-0.0000000000030117
 20
254.3117629888915
 11
-0.0000000000022503
 21
-44.99999999999682
 72
     1
 10
-0.0000000000022503
 20
-44.99999999999681
 11
0.1703708685524141
 21
-46.29409522550942
 72
     1
 10
0.1703708685524141
 20
-46.29409522550942
 11
0.6698729810755561
 21
-47.49999999999682
 72
     1
 10
0.6698729810755561
 20
-47.49999999999682
 11
1.464466094064977
 21
-48.53553390592955
 72
     1
 10
1.464466094064977
 20
-48.53553390592955
 11
2.499999999997705
 21
-49.330127018919
 72
     1
 10
2.499999999997705
 20
-49.330127018919
 11
3.705904774485099
 21
-49.82962913144216
 72
     1
 10
3.705904774485099
 20
-49.82962913144216
 11
4.999999999997729
 21
-49.99999999999682
 72
     1
 10
4.999999999997729
 20
-49.99999999999682
 11
149.9999999999972
 21
-49.99999999999679
 72
     1
 10
149.9999999999972
 20
-49.99999999999679
 11
149.9999999999972
 21
13.50721088530689
 72
     1
 10
149.9999999999972
 20
13.50721088530689
 11
145.2908023048571
 21
13.50721088530686
 72
     1
 10
145.2908023048571
 20
13.50721088530686
 11
145.290802304857
 21
36.49278911470112
 72
     1
 10
145.290802304857
 20
36.49278911470112
 11
149.9999999999972
 21
36.49278911470116
 72
     1
 10
149.9999999999972
 20
36.49278911470116
 11
149.9999999999972
 21
254.3117629888915
 97
        0
 75
     0
 76
     2
 52
0.0
 41
1.0
 77
     0
 78
    17
 53
140.0
 43
2591.258
 44
-3564.884
 45
1.275164535438712
 46
14.57531627127039
 79
     2
 49
1.524
 49
-16.764
 53
85.0
 43
2591.258
 44
-3564.884
 45
-15.28490470283049
 46
-2.819562062695251
 79
     2
 49
1.219
 49
-13.411
 53
190.451
 43
2591.364
 44
-3563.670000000001
 45
-14.00984028402569
 46
11.75571368382587
 79
     2
 49
1.294999999999999
 49
-14.247
 53
136.1839999999999
 43
2587.194
 44
-3564.884
 45
3.363917892530039
 46
21.68615121252078
 79
     2
 49
2.286
 49
-25.146
 53
186.636
 43
2587.474
 44
-3563.077000000001
 45
-19.79432949781672
 46
18.99178013593941
 79
     2
 49
1.942999999999999
 49
-21.371
 53
81.18399999999999
 43
2587.194
 44
-3564.884
 45
-19.79409800004729
 46
18.99205837618776
 79
     2
 49
1.828999999999999
 49
-20.117
 53
111.0
 43
2588.21
 44
-3562.852
 45
8.181537578984801
 46
12.12964681446494
 79
     2
 49
1.524
 49
-16.764
 53
56.0
 43
2588.21
 44
-3562.852
 45
-14.73542968771944
 46
4.94422429894483
 79
     2
 49
1.219
 49
-13.411
 53
161.451
 43
2588.892
 44
-3561.841
 45
-6.55399931950397
 46
17.0738842071727
 79
     2
 49
1.294999999999999
 49
-14.247
 53
127.5
 43
2591.258
 44
-3564.884
 45
-6.764327827702704
 46
0.2472266963069014
 79
     5
 49
0.6705600000000001
 49
-12.578
 49
0.6705600000000001
 49
-12.944
 49
-13.462
 53
127.5
 43
2591.258
 44
-3564.884
 45
-6.764327827702704
 46
0.2472266963069014
 79
     3
 49
-26.86300000000001
 49
0.6705600000000001
 49
-12.791
 53
97.5
 43
2591.258
 44
-3564.884
 45
-8.014311571065825
 46
5.345655249067267
 79
     5
 49
0.6705600000000001
 49
-7.092
 49
0.6705600000000001
 49
-12.273
 49
-5.131
 53
97.5
 43
2591.258
 44
-3564.884
 45
-8.014311571065825
 46
5.345655249067267
 79
     3
 49
-20.706
 49
0.6705600000000001
 49
-4.459999999999999
 53
57.5
 43
2591.258
 44
-3569.415
 45
0.4581935723046869
 46
10.84764710203547
 79
     5
 49
0.67056
 49
-4.408999999999998
 49
0.67056
 49
-15.179
 49
-21.03099999999999
 53
57.5
 43
2591.258
 44
-3569.415
 45
0.4581935723046869
 46
10.84764710203547
 79
     3
 49
-20.92999999999999
 49
0.67056
 49
-20.361
 53
47.5
 43
2591.258
 44
-3571.447
 45
-2.034187665042933
 46
11.85073354452741
 79
     5
 49
0.6705600000000001
 49
-5.932999999999999
 49
0.6705600000000001
 49
-9.855
 49
-14.935
 53
47.5
 43
2591.258
 44
-3571.447
 45
-2.034187665042933
 46
11.85073354452741
 79
     3
 49
-17.13
 49
0.6705600000000001
 49
-14.265
 98
        1
 10
0.0
 20
0.0
1001
REVIT
1002
{
1070
     1
1000
754221
1002
}
1002
{
1070
     5
1000
754219
1002
}
  0
LINE
  5
D9
330
C9
100
AcDbEntity
  8
_ARDEX - BUTYNOL_
100
AcDbLine
 10
4.999999999999945
 20
-49.99999999999991
 30
0.0
 11
149.9999999999992
 21
-49.99999999999991
 31
0.0
1001
REVIT
1002
{
1070
     1
1000
754221
1002
}
1002
{
1070
     5
1000
754219
1002
}
1002
{
1070
     3
1000
335612
1002
}
  0
LINE
  5
DA
330
C9
100
AcDbEntity
  8
_ARDEX - BUTYNOL_
100
AcDbLine
 10
149.9999999999992
 20
-49.9999999999999
 30
0.0
 11
149.9999999999992
 21
13.50721088530366
 31
0.0
1001
REVIT
1002
{
1070
     1
1000
754221
1002
}
1002
{
1070
     5
1000
754219
1002
}
1002
{
1070
     3
1000
335612
1002
}
  0
LINE
  5
DB
330
C9
100
AcDbEntity
  8
_ARDEX - BUTYNOL_
100
AcDbLine
 10
149.9999999999992
 20
36.49278911469789
 30
0.0
 11
149.9999999999992
 21
254.3117629888879
 31
0.0
1001
REVIT
1002
{
1070
     1
1000
754221
1002
}
1002
{
1070
     5
1000
754219
1002
}
1002
{
1070
     3
1000
335612
1002
}
  0
LINE
  5
DC
330
C9
100
AcDbEntity
  8
_ARDEX - BUTYNOL_
100
AcDbLine
 10
-0.0000000000007783
 20
254.3117629888879
 30
0.0
 11
-0.0000000000007783
 21
-44.99999999999995
 31
0.0
1001
REVIT
1002
{
1070
     1
1000
754221
1002
}
1002
{
1070
     5
1000
754219
1002
}
1002
{
1070
     3
1000
335612
1002
}
  0
ARC
  5
DD
330
C9
100
AcDbEntity
  8
_ARDEX - WELDTEC TANKING_
100
AcDbCircle
 10
4.999999999999965
 20
-44.99999999999993
 30
0.0
 40
4.999999999999978
100
AcDbArc
 50
179.9999999999996
 51
269.9999999999993
1001
REVIT
1002
{
1070
     1
1000
754221
1002
}
1002
{
1070
     5
1000
754219
1002
}
  0
ENDBLK
  5
DF
330
C9
100
AcDbEntity
  8
0
100
AcDbBlockEnd
  0
BLOCK
  5
EE
330
E1
100
AcDbEntity
  8
0
100
AcDbBlockBegin
  2
_ARDEX_ Lining - Various - Concrete Wall 150-754656-_HD_ - AS-07 TANKED WALL_ROOF DECK JUNCTION
 70
     0
 10
0.0
 20
0.0
 30
0.0
  3
_ARDEX_ Lining - Various - Concrete Wall 150-754656-_HD_ - AS-07 TANKED WALL_ROOF DECK JUNCTION
  1

  0
LINE
  5
E2
330
E1
100
AcDbEntity
  8
_ARDEX - BUTYNOL_
370
     9
100
AcDbLine
 10
0.0
 20
86.4927891146981
 30
0.0
 11
0.0
 21
0.0
 31
0.0
1001
REVIT
1002
{
1070
     1
1000
754605
1002
}
1002
{
1070
     5
1000
753775
1002
}
1002
{
1070
     3
1000
335606
1002
}
  0
LINE
  5
E3
330
E1
100
AcDbEntity
  8
_ARDEX - BUTYNOL_
370
     9
100
AcDbLine
 10
0.0
 20
150.0
 30
0.0
 11
0.0
 21
86.4927891146981
 31
0.0
1001
REVIT
1002
{
1070
     1
1000
754605
1002
}
1002
{
1070
     5
1000
753775
1002
}
1002
{
1070
     3
1000
335606
1002
}
  0
LINE
  5
E4
330
E1
100
AcDbEntity
  8
_ARDEX - BUTYNOL_
370
     9
100
AcDbLine
 10
0.0
 20
150.0
 30
0.0
 11
125.0
 21
150.0
 31
0.0
1001
REVIT
1002
{
1070
     1
1000
754605
1002
}
1002
{
1070
     5
1000
753775
1002
}
1002
{
1070
     3
1000
335606
1002
}
  0
LINE
  5
E5
330
E1
100
AcDbEntity
  8
_ARDEX - BUTYNOL_
370
     9
100
AcDbLine
 10
0.0
 20
0.0
 30
0.0
 11
125.0
 21
0.0
 31
0.0
1001
REVIT
1002
{
1070
     1
1000
754605
1002
}
1002
{
1070
     5
1000
753775
1002
}
1002
{
1070
     3
1000
335606
1002
}
  0
HATCH
  5
EB
330
E1
100
AcDbEntity
  8
_ARDEX - BUTYNOL_
 62
     8
420
  8421504
370
     9
100
AcDbHatch
 10
0.0
 20
0.0
 30
0.0
210
0.0
220
0.0
230
1.0
  2
FP_2
 70
     0
 71
     0
 91
        1
 92
        1
 93
        5
 72
     1
 10
124.9999999999984
 20
63.50721088530669
 11
124.9999999999984
 21
150.0000000000029
 72
     1
 10
124.9999999999984
 20
150.0000000000029
 11
-0.0000000000016911
 21
150.0000000000029
 72
     1
 10
-0.000000000001692
 20
150.0000000000029
 11
-0.000000000001692
 21
-0.0000000000000284
 72
     1
 10
-0.000000000001692
 20
-0.0000000000000338
 11
124.9999999999984
 21
-0.0000000000000338
 72
     1
 10
124.9999999999984
 20
-0.0000000000000338
 11
124.9999999999984
 21
63.50721088530669
 97
        0
 75
     0
 76
     2
 52
0.0
 41
1.0
 77
     0
 78
    17
 53
140.0
 43
2436.258
 44
-3514.884
 45
1.275164535438712
 46
14.57531627127039
 79
     2
 49
1.524
 49
-16.764
 53
85.0
 43
2436.258
 44
-3514.884
 45
-15.28490470283049
 46
-2.819562062695251
 79
     2
 49
1.219
 49
-13.411
 53
190.451
 43
2436.364
 44
-3513.670000000001
 45
-14.00984028402569
 46
11.75571368382587
 79
     2
 49
1.294999999999999
 49
-14.247
 53
136.1839999999999
 43
2432.194
 44
-3514.884
 45
3.363917892530039
 46
21.68615121252078
 79
     2
 49
2.286
 49
-25.146
 53
186.636
 43
2432.474
 44
-3513.077000000001
 45
-19.79432949781672
 46
18.99178013593941
 79
     2
 49
1.942999999999999
 49
-21.371
 53
81.18399999999999
 43
2432.194
 44
-3514.884
 45
-19.79409800004729
 46
18.99205837618776
 79
     2
 49
1.828999999999999
 49
-20.117
 53
111.0
 43
2433.21
 44
-3512.852
 45
8.181537578984801
 46
12.12964681446494
 79
     2
 49
1.524
 49
-16.764
 53
56.0
 43
2433.21
 44
-3512.852
 45
-14.73542968771944
 46
4.94422429894483
 79
     2
 49
1.219
 49
-13.411
 53
161.451
 43
2433.892
 44
-3511.841
 45
-6.55399931950397
 46
17.0738842071727
 79
     2
 49
1.294999999999999
 49
-14.247
 53
127.5
 43
2436.258
 44
-3514.884
 45
-6.764327827702704
 46
0.2472266963069014
 79
     5
 49
0.6705600000000001
 49
-12.578
 49
0.6705600000000001
 49
-12.944
 49
-13.462
 53
127.5
 43
2436.258
 44
-3514.884
 45
-6.764327827702704
 46
0.2472266963069014
 79
     3
 49
-26.86300000000001
 49
0.6705600000000001
 49
-12.791
 53
97.5
 43
2436.258
 44
-3514.884
 45
-8.014311571065825
 46
5.345655249067267
 79
     5
 49
0.6705600000000001
 49
-7.092
 49
0.6705600000000001
 49
-12.273
 49
-5.131
 53
97.5
 43
2436.258
 44
-3514.884
 45
-8.014311571065825
 46
5.345655249067267
 79
     3
 49
-20.706
 49
0.6705600000000001
 49
-4.459999999999999
 53
57.5
 43
2436.258
 44
-3519.415
 45
0.4581935723046869
 46
10.84764710203547
 79
     5
 49
0.67056
 49
-4.408999999999998
 49
0.67056
 49
-15.179
 49
-21.03099999999999
 53
57.5
 43
2436.258
 44
-3519.415
 45
0.4581935723046869
 46
10.84764710203547
 79
     3
 49
-20.92999999999999
 49
0.67056
 49
-20.361
 53
47.5
 43
2436.258
 44
-3521.447
 45
-2.034187665042933
 46
11.85073354452741
 79
     5
 49
0.6705600000000001
 49
-5.932999999999999
 49
0.6705600000000001
 49
-9.855
 49
-14.935
 53
47.5
 43
2436.258
 44
-3521.447
 45
-2.034187665042933
 46
11.85073354452741
 79
     3
 49
-17.13
 49
0.6705600000000001
 49
-14.265
 98
        1
 10
0.0
 20
0.0
1001
REVIT
1002
{
1070
     1
1000
754605
1002
}
1002
{
1070
     5
1000
753775
1002
}
1002
{
1070
     3
1000
335606
1002
}
  0
LINE
  5
EC
330
E1
100
AcDbEntity
  8
_ARDEX - BUTYNOL_
100
AcDbLine
 10
0.0
 20
-0.0000000000028087
 30
0.0
 11
125.0
 21
-0.0000000000028087
 31
0.0
1001
REVIT
1002
{
1070
     1
1000
754605
1002
}
1002
{
1070
     5
1000
753775
1002
}
1002
{
1070
     3
1000
335612
1002
}
  0
LINE
  5
ED
330
E1
100
AcDbEntity
  8
_ARDEX - BUTYNOL_
100
AcDbLine
 10
125.0
 20
150.0
 30
0.0
 11
0.0
 21
150.0
 31
0.0
1001
REVIT
1002
{
1070
     1
1000
754605
1002
}
1002
{
1070
     5
1000
753775
1002
}
1002
{
1070
     3
1000
335612
1002
}
  0
ENDBLK
  5
EF
330
E1
100
AcDbEntity
  8
0
100
AcDbBlockEnd
  0
BLOCK
  5
FB
330
F1
100
AcDbEntity
  8
0
100
AcDbBlockBegin
  2
_ARDEX_ Waterstop - _ARDEX_ Water Stop-708192-_HD_ - AS-07 TANKED WALL_ROOF DECK JUNCTION
 70
     0
 10
0.0
 20
0.0
 30
0.0
  3
_ARDEX_ Waterstop - _ARDEX_ Water Stop-708192-_HD_ - AS-07 TANKED WALL_ROOF DECK JUNCTION
  1

  0
HATCH
  5
F6
330
F1
100
AcDbEntity
  8
_ARDEX - WELDTEC TANKING_
 62
     8
420
  7434356
100
AcDbHatch
 10
0.0
 20
0.0
 30
0.0
210
0.0
220
0.0
230
1.0
  2
SOLID
 70
     1
 71
     0
 91
        1
 92
        1
 93
        4
 72
     1
 10
0.0000000000032148
 20
0.000000000001692
 11
0.0000000000032148
 21
9.709197695141433
 72
     1
 10
0.0000000000032148
 20
9.709197695141435
 11
-22.98557822939102
 21
9.709197695141435
 72
     1
 10
-22.98557822939102
 20
9.709197695141435
 11
-22.98557822939102
 21
0.0000000000016929
 72
     1
 10
-22.98557822939102
 20
0.000000000001692
 11
0.0000000000032152
 21
0.000000000001692
 97
        0
 75
     0
 76
     1
 98
        1
 10
0.0
 20
0.0
450
        0
451
        0
460
0.0
461
0.0
452
        0
462
0.0
453
        0
470

1001
REVIT
1002
{
1070
     1
1000
754777
1002
}
1002
{
1070
     5
1000
707735
1002
}
  0
LINE
  5
F7
330
F1
100
AcDbEntity
  8
_ARDEX - BUTYNOL_
370
    25
100
AcDbLine
 10
-22.98557822939426
 20
0.0
 30
0.0
 11
0.0
 21
0.0
 31
0.0
1001
REVIT
1002
{
1070
     1
1000
754777
1002
}
1002
{
1070
     5
1000
707735
1002
}
1002
{
1070
     3
1000
335610
1002
}
  0
LINE
  5
F8
330
F1
100
AcDbEntity
  8
_ARDEX - BUTYNOL_
370
    25
100
AcDbLine
 10
0.0
 20
0.0
 30
0.0
 11
0.0
 21
9.709197695139737
 31
0.0
1001
REVIT
1002
{
1070
     1
1000
754777
1002
}
1002
{
1070
     5
1000
707735
1002
}
1002
{
1070
     3
1000
335610
1002
}
  0
LINE
  5
F9
330
F1
100
AcDbEntity
  8
_ARDEX - BUTYNOL_
370
    25
100
AcDbLine
 10
0.0
 20
9.709197695139737
 30
0.0
 11
-22.98557822939426
 21
9.709197695139737
 31
0.0
1001
REVIT
1002
{
1070
     1
1000
754777
1002
}
1002
{
1070
     5
1000
707735
1002
}
1002
{
1070
     3
1000
335610
1002
}
  0
LINE
  5
FA
330
F1
100
AcDbEntity
  8
_ARDEX - BUTYNOL_
370
    25
100
AcDbLine
 10
-22.98557822939426
 20
9.709197695139737
 30
0.0
 11
-22.98557822939426
 21
0.0
 31
0.0
1001
REVIT
1002
{
1070
     1
1000
754777
1002
}
1002
{
1070
     5
1000
707735
1002
}
1002
{
1070
     3
1000
335610
1002
}
  0
ENDBLK
  5
FC
330
F1
100
AcDbEntity
  8
0
100
AcDbBlockEnd
  0
BLOCK
  5
100
330
FE
100
AcDbEntity
  8
0
100
AcDbBlockBegin
  2
_ARDEX_ Lines - WPM 5000HD DPM Membrane-757949-_HD_ - AS-07 TANKED WALL_ROOF DECK JUNCTION
 70
     0
 10
0.0
 20
0.0
 30
0.0
  3
_ARDEX_ Lines - WPM 5000HD DPM Membrane-757949-_HD_ - AS-07 TANKED WALL_ROOF DECK JUNCTION
  1

  0
LINE
  5
FF
330
FE
100
AcDbEntity
  8
_ARDEX - WELDTEC TANKING_
 62
   133
420
  7589074
370
    90
100
AcDbLine
 10
29.79754241518707
 20
0.0
 30
0.0
 11
-0.0000000000027072
 21
0.0
 31
0.0
1001
REVIT
1002
{
1070
     1
1000
755354
1002
}
1002
{
1070
     5
1000
708233
1002
}
1002
{
1070
     3
1000
614484
1002
}
  0
ENDBLK
  5
101
330
FE
100
AcDbEntity
  8
0
100
AcDbBlockEnd
  0
BLOCK
  5
105
330
103
100
AcDbEntity
  8
0
100
AcDbBlockBegin
  2
_ARDEX_ Lines - WPM 5000HD DPM Membrane-757950-_HD_ - AS-07 TANKED WALL_ROOF DECK JUNCTION
 70
     0
 10
0.0
 20
0.0
 30
0.0
  3
_ARDEX_ Lines - WPM 5000HD DPM Membrane-757950-_HD_ - AS-07 TANKED WALL_ROOF DECK JUNCTION
  1

  0
LINE
  5
104
330
103
100
AcDbEntity
  8
_ARDEX - WELDTEC TANKING_
 62
   133
420
  7589074
370
    90
100
AcDbLine
 10
4.944201927971464
 20
0.0
 30
0.0
 11
-0.0000000000027072
 21
0.0
 31
0.0
1001
REVIT
1002
{
1070
     1
1000
755448
1002
}
1002
{
1070
     5
1000
708233
1002
}
1002
{
1070
     3
1000
614484
1002
}
  0
ENDBLK
  5
106
330
103
100
AcDbEntity
  8
0
100
AcDbBlockEnd
  0
BLOCK
  5
10A
330
108
100
AcDbEntity
  8
0
100
AcDbBlockBegin
  2
_ARDEX_ Lines - WPM 5000HD DPM Membrane-757951-_HD_ - AS-07 TANKED WALL_ROOF DECK JUNCTION
 70
     0
 10
0.0
 20
0.0
 30
0.0
  3
_ARDEX_ Lines - WPM 5000HD DPM Membrane-757951-_HD_ - AS-07 TANKED WALL_ROOF DECK JUNCTION
  1

  0
LINE
  5
109
330
108
100
AcDbEntity
  8
_ARDEX - WELDTEC TANKING_
 62
   133
420
  7589074
370
    90
100
AcDbLine
 10
202.2568130090243
 20
0.0
 30
0.0
 11
-0.0000000000027072
 21
0.0
 31
0.0
1001
REVIT
1002
{
1070
     1
1000
755880
1002
}
1002
{
1070
     5
1000
708233
1002
}
1002
{
1070
     3
1000
614484
1002
}
  0
ENDBLK
  5
10B
330
108
100
AcDbEntity
  8
0
100
AcDbBlockEnd
  0
BLOCK
  5
10F
330
10D
100
AcDbEntity
  8
0
100
AcDbBlockBegin
  2
_ARDEX_ Lines - WPM 5000HD DPM Membrane-757952-_HD_ - AS-07 TANKED WALL_ROOF DECK JUNCTION
 70
     0
 10
0.0
 20
0.0
 30
0.0
  3
_ARDEX_ Lines - WPM 5000HD DPM Membrane-757952-_HD_ - AS-07 TANKED WALL_ROOF DECK JUNCTION
  1

  0
LINE
  5
10E
330
10D
100
AcDbEntity
  8
_ARDEX - WELDTEC TANKING_
 62
   133
420
  7589074
370
    90
100
AcDbLine
 10
4.242640687116239
 20
0.0
 30
0.0
 11
-0.0000000000027072
 21
0.0
 31
0.0
1001
REVIT
1002
{
1070
     1
1000
755931
1002
}
1002
{
1070
     5
1000
708233
1002
}
1002
{
1070
     3
1000
614484
1002
}
  0
ENDBLK
  5
110
330
10D
100
AcDbEntity
  8
0
100
AcDbBlockEnd
  0
BLOCK
  5
114
330
112
100
AcDbEntity
  8
0
100
AcDbBlockBegin
  2
_ARDEX_ Lines - WPM 5000HD DPM Membrane-757953-_HD_ - AS-07 TANKED WALL_ROOF DECK JUNCTION
 70
     0
 10
0.0
 20
0.0
 30
0.0
  3
_ARDEX_ Lines - WPM 5000HD DPM Membrane-757953-_HD_ - AS-07 TANKED WALL_ROOF DECK JUNCTION
  1

  0
LINE
  5
113
330
112
100
AcDbEntity
  8
_ARDEX - WELDTEC TANKING_
 62
   133
420
  7589074
370
    90
100
AcDbLine
 10
30.59787342756449
 20
0.0
 30
0.0
 11
-0.0000000000027072
 21
0.0
 31
0.0
1001
REVIT
1002
{
1070
     1
1000
756059
1002
}
1002
{
1070
     5
1000
708233
1002
}
1002
{
1070
     3
1000
614484
1002
}
  0
ENDBLK
  5
115
330
112
100
AcDbEntity
  8
0
100
AcDbBlockEnd
  0
BLOCK
  5
147
330
117
100
AcDbEntity
  8
0
100
AcDbBlockBegin
  2
_ARDEX_ Pressure Bar 10801 - _ARDEX_ Waterproofing Membrane-757924-_HD_ - AS-07 TANKED WALL_ROOF DECK JUNCTION
 70
     0
 10
0.0
 20
0.0
 30
0.0
  3
_ARDEX_ Pressure Bar 10801 - _ARDEX_ Waterproofing Membrane-757924-_HD_ - AS-07 TANKED WALL_ROOF DECK JUNCTION
  1

  0
LINE
  5
118
330
117
100
AcDbEntity
  8
_ARDEX - BUTYNOL_
370
     9
100
AcDbLine
 10
204.9626156148732
 20
222.6823532967245
 30
0.0
 11
380.3485818666901
 21
222.6823532967245
 31
0.0
1001
REVIT
1002
{
1070
     1
1000
756802
1002
}
1002
{
1070
     5
1000
757505
1002
}
1002
{
1070
     3
1000
437134
1002
}
  0
LINE
  5
119
330
117
100
AcDbEntity
  8
_ARDEX - BUTYNOL_
370
     9
100
AcDbLine
 10
204.9626156148732
 20
221.1397551451227
 30
0.0
 11
380.3485818666901
 21
221.1397551451227
 31
0.0
1001
REVIT
1002
{
1070
     1
1000
756802
1002
}
1002
{
1070
     5
1000
757505
1002
}
1002
{
1070
     3
1000
437134
1002
}
  0
ARC
  5
11A
330
117
100
AcDbEntity
  8
_ARDEX - BUTYNOL_
370
     9
100
AcDbCircle
 10
62.06918979238025
 20
159.781636547148
 30
0.0
 40
5.027907661547072
100
AcDbArc
 50
94.63911934572761
 51
174.4827577371153
1001
REVIT
1002
{
1070
     1
1000
756802
1002
}
1002
{
1070
     5
1000
757505
1002
}
1002
{
1070
     3
1000
437134
1002
}
  0
LINE
  5
11B
330
117
100
AcDbEntity
  8
_ARDEX - BUTYNOL_
370
     9
100
AcDbLine
 10
57.06457486825225
 20
159.2267590050468
 30
0.0
 11
57.06457486825225
 21
160.2650462225155
 31
0.0
1001
REVIT
1002
{
1070
     1
1000
756802
1002
}
1002
{
1070
     5
1000
757505
1002
}
1002
{
1070
     3
1000
437134
1002
}
  0
LINE
  5
11C
330
117
100
AcDbEntity
  8
_ARDEX - BUTYNOL_
370
     9
100
AcDbLine
 10
57.68324273339157
 20
159.2267590050468
 30
0.0
 11
57.06457486825225
 21
159.2267590050468
 31
0.0
1001
REVIT
1002
{
1070
     1
1000
756802
1002
}
1002
{
1070
     5
1000
757505
1002
}
1002
{
1070
     3
1000
437134
1002
}
  0
LINE
  5
11D
330
117
100
AcDbEntity
  8
_ARDEX - BUTYNOL_
370
     9
100
AcDbLine
 10
57.68324273339157
 20
157.2644753829771
 30
0.0
 11
57.68324273339157
 21
159.2267590050468
 31
0.0
1001
REVIT
1002
{
1070
     1
1000
756802
1002
}
1002
{
1070
     5
1000
757505
1002
}
1002
{
1070
     3
1000
437134
1002
}
  0
LINE
  5
11E
330
117
100
AcDbEntity
  8
_ARDEX - BUTYNOL_
370
     9
100
AcDbLine
 10
57.06457486825225
 20
157.2644753829771
 30
0.0
 11
57.06457486825225
 21
154.4103991410337
 31
0.0
1001
REVIT
1002
{
1070
     1
1000
756802
1002
}
1002
{
1070
     5
1000
757505
1002
}
1002
{
1070
     3
1000
437134
1002
}
  0
LINE
  5
11F
330
117
100
AcDbEntity
  8
_ARDEX - BUTYNOL_
370
     9
100
AcDbLine
 10
59.26989164649556
 20
155.2585763243277
 30
0.0
 11
57.06457486825225
 21
157.2644753829771
 31
0.0
1001
REVIT
1002
{
1070
     1
1000
756802
1002
}
1002
{
1070
     5
1000
757505
1002
}
1002
{
1070
     3
1000
437134
1002
}
  0
LINE
  5
120
330
117
100
AcDbEntity
  8
_ARDEX - BUTYNOL_
370
     9
100
AcDbLine
 10
79.45727800331359
 20
155.2585763243277
 30
0.0
 11
59.26989164649556
 21
155.2585763243277
 31
0.0
1001
REVIT
1002
{
1070
     1
1000
756802
1002
}
1002
{
1070
     5
1000
757505
1002
}
1002
{
1070
     3
1000
437134
1002
}
  0
LINE
  5
121
330
117
100
AcDbEntity
  8
_ARDEX - BUTYNOL_
370
     9
100
AcDbLine
 10
81.83226227631299
 20
153.7318093072471
 30
0.0
 11
79.45727800331359
 21
155.2585763243277
 31
0.0
1001
REVIT
1002
{
1070
     1
1000
756802
1002
}
1002
{
1070
     5
1000
757505
1002
}
1002
{
1070
     3
1000
437134
1002
}
  0
LINE
  5
122
330
117
100
AcDbEntity
  8
_ARDEX - BUTYNOL_
370
     9
100
AcDbLine
 10
79.28765058117779
 20
152.2050422901665
 30
0.0
 11
81.83226227631299
 21
153.7318093072471
 31
0.0
1001
REVIT
1002
{
1070
     1
1000
756802
1002
}
1002
{
1070
     5
1000
757505
1002
}
1002
{
1070
     3
1000
437134
1002
}
  0
LINE
  5
123
330
117
100
AcDbEntity
  8
_ARDEX - BUTYNOL_
370
     9
100
AcDbLine
 10
59.26989164649556
 20
152.2050422901665
 30
0.0
 11
79.28765058117779
 21
152.2050422901665
 31
0.0
1001
REVIT
1002
{
1070
     1
1000
756802
1002
}
1002
{
1070
     5
1000
757505
1002
}
1002
{
1070
     3
1000
437134
1002
}
  0
LINE
  5
124
330
117
100
AcDbEntity
  8
_ARDEX - BUTYNOL_
370
     9
100
AcDbLine
 10
57.06457486825225
 20
149.4907631002733
 30
0.0
 11
59.26989164649556
 21
152.2050422901665
 31
0.0
1001
REVIT
1002
{
1070
     1
1000
756802
1002
}
1002
{
1070
     5
1000
757505
1002
}
1002
{
1070
     3
1000
437134
1002
}
  0
LINE
  5
125
330
117
100
AcDbEntity
  8
_ARDEX - BUTYNOL_
370
     9
100
AcDbLine
 10
57.06457486825225
 20
152.3746697123005
 30
0.0
 11
57.06457486825225
 21
149.4907631002733
 31
0.0
1001
REVIT
1002
{
1070
     1
1000
756802
1002
}
1002
{
1070
     5
1000
757505
1002
}
1002
{
1070
     3
1000
437134
1002
}
  0
LINE
  5
126
330
117
100
AcDbEntity
  8
_ARDEX - BUTYNOL_
370
     9
100
AcDbLine
 10
57.57349720728003
 20
152.3746697123005
 30
0.0
 11
57.06457486825225
 21
152.3746697123005
 31
0.0
1001
REVIT
1002
{
1070
     1
1000
756802
1002
}
1002
{
1070
     5
1000
757505
1002
}
1002
{
1070
     3
1000
437134
1002
}
  0
LINE
  5
127
330
117
100
AcDbEntity
  8
_ARDEX - BUTYNOL_
370
     9
100
AcDbLine
 10
57.57349720728003
 20
154.4103991410337
 30
0.0
 11
57.57349720728003
 21
152.3746697123005
 31
0.0
1001
REVIT
1002
{
1070
     1
1000
756802
1002
}
1002
{
1070
     5
1000
757505
1002
}
1002
{
1070
     3
1000
437134
1002
}
  0
LINE
  5
128
330
117
100
AcDbEntity
  8
_ARDEX - BUTYNOL_
370
     9
100
AcDbLine
 10
57.06632941772973
 20
154.4103991410337
 30
0.0
 11
57.57349720728003
 21
154.4103991410337
 31
0.0
1001
REVIT
1002
{
1070
     1
1000
756802
1002
}
1002
{
1070
     5
1000
757505
1002
}
1002
{
1070
     3
1000
437134
1002
}
  0
LINE
  5
129
330
117
100
AcDbEntity
  8
_ARDEX - BUTYNOL_
370
     9
100
AcDbLine
 10
57.06632941772973
 20
157.2644753829771
 30
0.0
 11
57.06632941772973
 21
154.4103991410337
 31
0.0
1001
REVIT
1002
{
1070
     1
1000
756802
1002
}
1002
{
1070
     5
1000
757505
1002
}
1002
{
1070
     3
1000
437134
1002
}
  0
LINE
  5
12A
330
117
100
AcDbEntity
  8
_ARDEX - BUTYNOL_
370
     9
100
AcDbLine
 10
57.06632941772973
 20
154.4103991410337
 30
0.0
 11
57.06632941772973
 21
157.2644753829771
 31
0.0
1001
REVIT
1002
{
1070
     1
1000
756802
1002
}
1002
{
1070
     5
1000
757505
1002
}
1002
{
1070
     3
1000
437134
1002
}
  0
LINE
  5
12B
330
117
100
AcDbEntity
  8
_ARDEX - BUTYNOL_
370
     9
100
AcDbLine
 10
57.57349720728003
 20
154.4103991410337
 30
0.0
 11
57.06632941772973
 21
154.4103991410337
 31
0.0
1001
REVIT
1002
{
1070
     1
1000
756802
1002
}
1002
{
1070
     5
1000
757505
1002
}
1002
{
1070
     3
1000
437134
1002
}
  0
LINE
  5
12C
330
117
100
AcDbEntity
  8
_ARDEX - BUTYNOL_
370
     9
100
AcDbLine
 10
57.57349720728003
 20
152.3746697123005
 30
0.0
 11
57.57349720728003
 21
154.4103991410337
 31
0.0
1001
REVIT
1002
{
1070
     1
1000
756802
1002
}
1002
{
1070
     5
1000
757505
1002
}
1002
{
1070
     3
1000
437134
1002
}
  0
LINE
  5
12D
330
117
100
AcDbEntity
  8
_ARDEX - BUTYNOL_
370
     9
100
AcDbLine
 10
57.06457486825225
 20
152.3746697123005
 30
0.0
 11
57.57349720728003
 21
152.3746697123005
 31
0.0
1001
REVIT
1002
{
1070
     1
1000
756802
1002
}
1002
{
1070
     5
1000
757505
1002
}
1002
{
1070
     3
1000
437134
1002
}
  0
LINE
  5
12E
330
117
100
AcDbEntity
  8
_ARDEX - BUTYNOL_
370
     9
100
AcDbLine
 10
57.06457486825225
 20
149.4907631002733
 30
0.0
 11
57.06457486825225
 21
152.3746697123005
 31
0.0
1001
REVIT
1002
{
1070
     1
1000
756802
1002
}
1002
{
1070
     5
1000
757505
1002
}
1002
{
1070
     3
1000
437134
1002
}
  0
LINE
  5
12F
330
117
100
AcDbEntity
  8
_ARDEX - BUTYNOL_
370
     9
100
AcDbLine
 10
57.68324273339157
 20
149.4907631002733
 30
0.0
 11
57.06457486825225
 21
149.4907631002733
 31
0.0
1001
REVIT
1002
{
1070
     1
1000
756802
1002
}
1002
{
1070
     5
1000
757505
1002
}
1002
{
1070
     3
1000
437134
1002
}
  0
LINE
  5
130
330
117
100
AcDbEntity
  8
_ARDEX - BUTYNOL_
370
     9
100
AcDbLine
 10
57.68324273339157
 20
147.3198179646132
 30
0.0
 11
57.68324273339157
 21
149.4907631002733
 31
0.0
1001
REVIT
1002
{
1070
     1
1000
756802
1002
}
1002
{
1070
     5
1000
757505
1002
}
1002
{
1070
     3
1000
437134
1002
}
  0
LINE
  5
131
330
117
100
AcDbEntity
  8
_ARDEX - BUTYNOL_
370
     9
100
AcDbLine
 10
57.06457486825225
 20
147.3198179646132
 30
0.0
 11
57.68324273339157
 21
147.3198179646132
 31
0.0
1001
REVIT
1002
{
1070
     1
1000
756802
1002
}
1002
{
1070
     5
1000
757505
1002
}
1002
{
1070
     3
1000
437134
1002
}
  0
LINE
  5
132
330
117
100
AcDbEntity
  8
_ARDEX - BUTYNOL_
370
     9
100
AcDbLine
 10
57.06457486825225
 20
144.38153577123
 30
0.0
 11
57.06457486825225
 21
147.3198179646132
 31
0.0
1001
REVIT
1002
{
1070
     1
1000
756802
1002
}
1002
{
1070
     5
1000
757505
1002
}
1002
{
1070
     3
1000
437134
1002
}
  0
LINE
  5
133
330
117
100
AcDbEntity
  8
_ARDEX - BUTYNOL_
370
     9
100
AcDbLine
 10
57.68324273339157
 20
144.38153577123
 30
0.0
 11
57.06457486825225
 21
144.38153577123
 31
0.0
1001
REVIT
1002
{
1070
     1
1000
756802
1002
}
1002
{
1070
     5
1000
757505
1002
}
1002
{
1070
     3
1000
437134
1002
}
  0
LINE
  5
134
330
117
100
AcDbEntity
  8
_ARDEX - BUTYNOL_
370
     9
100
AcDbLine
 10
57.68324273339157
 20
142.3402772281987
 30
0.0
 11
57.68324273339157
 21
144.38153577123
 31
0.0
1001
REVIT
1002
{
1070
     1
1000
756802
1002
}
1002
{
1070
     5
1000
757505
1002
}
1002
{
1070
     3
1000
437134
1002
}
  0
LINE
  5
135
330
117
100
AcDbEntity
  8
_ARDEX - BUTYNOL_
370
     9
100
AcDbLine
 10
57.06457486825225
 20
142.3402772281987
 30
0.0
 11
57.68324273339157
 21
142.3402772281987
 31
0.0
1001
REVIT
1002
{
1070
     1
1000
756802
1002
}
1002
{
1070
     5
1000
757505
1002
}
1002
{
1070
     3
1000
437134
1002
}
  0
LINE
  5
136
330
117
100
AcDbEntity
  8
_ARDEX - BUTYNOL_
370
     9
100
AcDbLine
 10
57.06457486825225
 20
137.534490679085
 30
0.0
 11
57.06457486825225
 21
142.3402772281987
 31
0.0
1001
REVIT
1002
{
1070
     1
1000
756802
1002
}
1002
{
1070
     5
1000
757505
1002
}
1002
{
1070
     3
1000
437134
1002
}
  0
LINE
  5
137
330
117
100
AcDbEntity
  8
_ARDEX - BUTYNOL_
370
     9
100
AcDbLine
 10
61.66253529701998
 20
139.7989456580688
 30
0.0
 11
57.06457486825225
 21
137.534490679085
 31
0.0
1001
REVIT
1002
{
1070
     1
1000
756802
1002
}
1002
{
1070
     5
1000
757505
1002
}
1002
{
1070
     3
1000
437134
1002
}
  0
LINE
  5
138
330
117
100
AcDbEntity
  8
_ARDEX - BUTYNOL_
370
     9
100
AcDbLine
 10
61.66253529701998
 20
146.1981852426396
 30
0.0
 11
61.66253529701998
 21
139.7989456580688
 31
0.0
1001
REVIT
1002
{
1070
     1
1000
756802
1002
}
1002
{
1070
     5
1000
757505
1002
}
1002
{
1070
     3
1000
437134
1002
}
  0
LINE
  5
139
330
117
100
AcDbEntity
  8
_ARDEX - BUTYNOL_
370
     9
100
AcDbLine
 10
63.14598054234507
 20
155.2585763243277
 30
0.0
 11
63.14598054234507
 21
152.2050422901665
 31
0.0
1001
REVIT
1002
{
1070
     1
1000
756802
1002
}
1002
{
1070
     5
1000
757505
1002
}
1002
{
1070
     3
1000
437134
1002
}
  0
LINE
  5
13A
330
117
100
AcDbEntity
  8
_ARDEX - BUTYNOL_
370
     9
100
AcDbLine
 10
71.91742778488499
 20
222.6823532967245
 30
0.0
 11
204.9626156148732
 21
222.6823532967245
 31
0.0
1001
REVIT
1002
{
1070
     1
1000
756802
1002
}
1002
{
1070
     5
1000
757505
1002
}
1002
{
1070
     3
1000
437134
1002
}
  0
LINE
  5
13B
330
117
100
AcDbEntity
  8
_ARDEX - BUTYNOL_
370
     9
100
AcDbLine
 10
61.66253529701998
 20
146.9652464114332
 30
0.0
 11
61.66253529701998
 21
211.8869915073777
 31
0.0
1001
REVIT
1002
{
1070
     1
1000
756802
1002
}
1002
{
1070
     5
1000
757505
1002
}
1002
{
1070
     3
1000
437134
1002
}
  0
LINE
  5
13C
330
117
100
AcDbEntity
  8
_ARDEX - BUTYNOL_
370
     9
100
AcDbLine
 10
63.1494823699445
 20
146.9652464114332
 30
0.0
 11
61.66253529701998
 21
146.9652464114332
 31
0.0
1001
REVIT
1002
{
1070
     1
1000
756802
1002
}
1002
{
1070
     5
1000
757505
1002
}
1002
{
1070
     3
1000
437134
1002
}
  0
LINE
  5
13D
330
117
100
AcDbEntity
  8
_ARDEX - BUTYNOL_
370
     9
100
AcDbLine
 10
63.1494823699445
 20
211.8142615754027
 30
0.0
 11
63.1494823699445
 21
146.9652464114332
 31
0.0
1001
REVIT
1002
{
1070
     1
1000
756802
1002
}
1002
{
1070
     5
1000
757505
1002
}
1002
{
1070
     3
1000
437134
1002
}
  0
LINE
  5
13E
330
117
100
AcDbEntity
  8
_ARDEX - BUTYNOL_
370
     9
100
AcDbLine
 10
204.9626156148732
 20
221.1397551451227
 30
0.0
 11
72.27519904336557
 21
221.1397551451227
 31
0.0
1001
REVIT
1002
{
1070
     1
1000
756802
1002
}
1002
{
1070
     5
1000
757505
1002
}
1002
{
1070
     3
1000
437134
1002
}
  0
ARC
  5
13F
330
117
100
AcDbEntity
  8
_ARDEX - BUTYNOL_
370
     9
100
AcDbCircle
 10
73.32988881177652
 20
210.9798030892079
 30
0.0
 40
10.21454826637365
100
AcDbArc
 50
95.92656329912006
 51
175.3141060764466
1001
REVIT
1002
{
1070
     1
1000
756802
1002
}
1002
{
1070
     5
1000
757505
1002
}
1002
{
1070
     3
1000
437134
1002
}
  0
ARC
  5
140
330
117
100
AcDbEntity
  8
_ARDEX - BUTYNOL_
370
     9
100
AcDbCircle
 10
72.94321393110793
 20
211.4395013142084
 30
0.0
 40
11.28955082891038
100
AcDbArc
 50
95.21317365816608
 51
177.7283402692129
1001
REVIT
1002
{
1070
     1
1000
756802
1002
}
1002
{
1070
     5
1000
757505
1002
}
1002
{
1070
     3
1000
437134
1002
}
  0
LINE
  5
141
330
117
100
AcDbEntity
  8
_ARDEX - BUTYNOL_
370
     9
100
AcDbLine
 10
60.87032751160357
 20
159.7889880015863
 30
0.0
 11
60.87032751160357
 21
146.1981852426396
 31
0.0
1001
REVIT
1002
{
1070
     1
1000
756802
1002
}
1002
{
1070
     5
1000
757505
1002
}
1002
{
1070
     3
1000
437134
1002
}
  0
LINE
  5
142
330
117
100
AcDbEntity
  8
_ARDEX - BUTYNOL_
370
     9
100
AcDbLine
 10
61.66253529701998
 20
159.7889880015863
 30
0.0
 11
60.87032751160357
 21
159.7889880015863
 31
0.0
1001
REVIT
1002
{
1070
     1
1000
756802
1002
}
1002
{
1070
     5
1000
757505
1002
}
1002
{
1070
     3
1000
437134
1002
}
  0
LINE
  5
143
330
117
100
AcDbEntity
  8
_ARDEX - BUTYNOL_
370
     9
100
AcDbLine
 10
61.75380347509555
 20
164.8829522271989
 30
0.0
 11
61.66253529701998
 21
159.7889880015863
 31
0.0
1001
REVIT
1002
{
1070
     1
1000
756802
1002
}
1002
{
1070
     5
1000
757505
1002
}
1002
{
1070
     3
1000
437134
1002
}
  0
LINE
  5
144
330
117
100
AcDbEntity
  8
_ARDEX - BUTYNOL_
370
     9
100
AcDbLine
 10
57.06457486825225
 20
157.2644753829771
 30
0.0
 11
57.68324273339157
 21
157.2644753829771
 31
0.0
1001
REVIT
1002
{
1070
     1
1000
756802
1002
}
1002
{
1070
     5
1000
757505
1002
}
1002
{
1070
     3
1000
437134
1002
}
  0
LINE
  5
145
330
117
100
AcDbEntity
  8
_ARDEX - BUTYNOL_
370
     9
100
AcDbLine
 10
60.87032751160357
 20
146.1981852426396
 30
0.0
 11
61.66253529701998
 21
146.1981852426396
 31
0.0
1001
REVIT
1002
{
1070
     1
1000
756802
1002
}
1002
{
1070
     5
1000
757505
1002
}
1002
{
1070
     3
1000
437134
1002
}
  0
LINE
  5
146
330
117
100
AcDbEntity
  8
_ARDEX - BUTYNOL_
370
     9
100
AcDbLine
 10
60.87032751160357
 20
159.7889880015863
 30
0.0
 11
60.87032751160357
 21
146.1981852426396
 31
0.0
1001
REVIT
1002
{
1070
     1
1000
756802
1002
}
1002
{
1070
     5
1000
757505
1002
}
1002
{
1070
     3
1000
437134
1002
}
  0
ENDBLK
  5
148
330
117
100
AcDbEntity
  8
0
100
AcDbBlockEnd
  0
BLOCK
  5
182
330
180
100
AcDbEntity
  8
0
100
AcDbBlockBegin
  2
_Oblique
 70
     0
 10
0.0
 20
0.0
 30
0.0
  3
_Oblique
  1

  0
LINE
  5
181
330
180
100
AcDbEntity
  8
0
  6
ByBlock
 62
     0
370
    -2
100
AcDbLine
 10
-0.5
 20
-0.5
 30
0.0
 11
0.5
 21
0.5
 31
0.0
  0
ENDBLK
  5
183
330
180
100
AcDbEntity
  8
0
100
AcDbBlockEnd
  0
BLOCK
  5
17D
330
187
100
AcDbEntity
  8
0
100
AcDbBlockBegin
  2
DIMBLOCK1-_HD_ - AS-07 TANKED WALL_ROOF DECK JUNCTION
 70
     0
 10
0.0
 20
0.0
 30
0.0
  3
DIMBLOCK1-_HD_ - AS-07 TANKED WALL_ROOF DECK JUNCTION
  1

  0
LINE
  5
173
330
187
100
AcDbEntity
  8
_ARDEX - WELDTEC TANKING_-2
100
AcDbLine
 10
3546.834894479562
 20
2598.657788497116
 30
0.0
 11
3546.834894479562
 21
2515.683279763426
 31
0.0
1001
REVIT
1002
{
1070
     1
1000
757983
1002
}
1002
{
1070
     5
1000
337368
1002
}
1002
{
1070
     2
1000
-2000260
1002
}
  0
LINE
  5
174
330
187
100
AcDbEntity
  8
_ARDEX - WELDTEC TANKING_-2
370
    18
100
AcDbLine
 10
3546.834894479562
 20
2520.083279763426
 30
0.0
 11
3545.634894479562
 21
2521.283279763426
 31
0.0
1001
REVIT
1002
{
1070
     1
1000
757983
1002
}
1002
{
1070
     5
1000
337368
1002
}
1002
{
1070
     2
1000
-2000260
1002
}
  0
LINE
  5
175
330
187
100
AcDbEntity
  8
_ARDEX - WELDTEC TANKING_-2
370
    18
100
AcDbLine
 10
3546.834894479562
 20
2520.083279763426
 30
0.0
 11
3548.034894479562
 21
2518.883279763425
 31
0.0
1001
REVIT
1002
{
1070
     1
1000
757983
1002
}
1002
{
1070
     5
1000
337368
1002
}
1002
{
1070
     2
1000
-2000260
1002
}
  0
LINE
  5
176
330
187
100
AcDbEntity
  8
_ARDEX - WELDTEC TANKING_-2
100
AcDbLine
 10
3546.834894479562
 20
2520.083279763426
 30
0.0
 11
3549.634894479562
 21
2520.083279763426
 31
0.0
1001
REVIT
1002
{
1070
     1
1000
757983
1002
}
1002
{
1070
     5
1000
337368
1002
}
1002
{
1070
     2
1000
-2000260
1002
}
  0
LINE
  5
177
330
187
100
AcDbEntity
  8
_ARDEX - WELDTEC TANKING_-2
100
AcDbLine
 10
3546.834894479562
 20
2520.083279763426
 30
0.0
 11
3536.834894479562
 21
2520.083279763426
 31
0.0
1001
REVIT
1002
{
1070
     1
1000
757983
1002
}
1002
{
1070
     5
1000
337368
1002
}
1002
{
1070
     2
1000
-2000260
1002
}
  0
LINE
  5
178
330
187
100
AcDbEntity
  8
_ARDEX - WELDTEC TANKING_-2
370
    18
100
AcDbLine
 10
3546.834894479562
 20
2594.257788497115
 30
0.0
 11
3545.634894479562
 21
2595.457788497116
 31
0.0
1001
REVIT
1002
{
1070
     1
1000
757983
1002
}
1002
{
1070
     5
1000
337368
1002
}
1002
{
1070
     2
1000
-2000260
1002
}
  0
LINE
  5
179
330
187
100
AcDbEntity
  8
_ARDEX - WELDTEC TANKING_-2
370
    18
100
AcDbLine
 10
3546.834894479562
 20
2594.257788497115
 30
0.0
 11
3548.034894479562
 21
2593.057788497115
 31
0.0
1001
REVIT
1002
{
1070
     1
1000
757983
1002
}
1002
{
1070
     5
1000
337368
1002
}
1002
{
1070
     2
1000
-2000260
1002
}
  0
LINE
  5
17A
330
187
100
AcDbEntity
  8
_ARDEX - WELDTEC TANKING_-2
100
AcDbLine
 10
3546.834894479562
 20
2594.257788497115
 30
0.0
 11
3544.034894479562
 21
2594.257788497115
 31
0.0
1001
REVIT
1002
{
1070
     1
1000
757983
1002
}
1002
{
1070
     5
1000
337368
1002
}
1002
{
1070
     2
1000
-2000260
1002
}
  0
LINE
  5
17B
330
187
100
AcDbEntity
  8
_ARDEX - WELDTEC TANKING_-2
100
AcDbLine
 10
3546.834894479562
 20
2594.257788497115
 30
0.0
 11
3556.834894479562
 21
2594.257788497115
 31
0.0
1001
REVIT
1002
{
1070
     1
1000
757983
1002
}
1002
{
1070
     5
1000
337368
1002
}
1002
{
1070
     2
1000
-2000260
1002
}
  0
MTEXT
  5
17C
330
187
100
AcDbEntity
  8
_ARDEX - WELDTEC TANKING_-2
 62
     0
100
AcDbMText
 10
3540.494811870387
 20
2543.870214234206
 30
0.0
 40
4.0
 41
31.92076775055461
 46
0.0
 71
     1
 72
     1
  1
MIN 75mm
  7
Swis721 Lt BT
 11
0.0
 21
1.0
 31
0.0
 73
     2
 44
1.005061956881442
1001
REVIT
1002
{
1070
     1
1000
757983
1002
}
1002
{
1070
     5
1000
337368
1002
}
1002
{
1070
     2
1000
-2000260
1002
}
  0
ENDBLK
  5
17E
330
171
100
AcDbEntity
  8
0
100
AcDbBlockEnd
  0
BLOCK
  5
1F9
330
198
100
AcDbEntity
  8
0
100
AcDbBlockBegin
  2
_ARDEX_ Landscape Title block Weldtec Tanking - ARDEX Logo_dwg-792302-TANKED WALL-ROOF DECK JUNCTION
 70
     0
 10
0.0
 20
0.0
 30
0.0
  3
_ARDEX_ Landscape Title block Weldtec Tanking - ARDEX Logo_dwg-792302-TANKED WALL-ROOF DECK JUNCTION
  1

  0
HATCH
  5
1F8
330
198
100
AcDbEntity
  8
_ARDEX - WELDTEC TANKING_
100
AcDbHatch
 10
0.0
 20
0.0
 30
0.0
210
0.0
220
0.0
230
1.0
  2
SOLID
 70
     1
 71
     0
 91
       10
 92
        1
 93
        9
 72
     2
 10
124477.6924476593
 20
57717.91884407958
 40
95604.56878771125
 50
119.6582597659365
 51
135.2772449014122
 73
     1
 72
     2
 10
97569.92099523827
 20
80348.69210974658
 40
60628.55096713104
 50
132.5784142254349
 51
167.1951084870361
 73
     1
 72
     2
 10
84430.2544945385
 20
83335.13079417297
 40
47153.77261030999
 50
167.1951084870365
 51
230.8048915129539
 73
     1
 72
     1
 10
54630.80824474616
 20
46791.03038671248
 11
61031.0658797229
 21
58828.16430584775
 72
     2
 10
101776.0882193553
 20
92587.59123374682
 40
52913.66318785065
 50
140.3564374123571
 51
160.4021121620632
 73
     0
 72
     1
 10
51927.72315465329
 20
74839.45746330507
 11
64132.70340177394
 21
81604.78848708596
 72
     1
 10
64132.70340177394
 20
81604.78848708596
 11
64132.70340177394
 21
42419.71860701207
 72
     1
 10
64132.70340177394
 20
42419.71860701207
 11
77170.09142470383
 21
42419.71860701207
 72
     1
 10
77170.09142470383
 20
42419.71860701207
 11
77170.09142470405
 21
140797.5460612086
 97
        0
 92
        1
 93
       15
 72
     1
 10
99587.9892175987
 20
42419.71860701207
 11
99587.9892175987
 21
93150.58336594923
 72
     1
 10
99587.9892175987
 20
93150.58336594923
 11
104323.244612749
 21
94781.06255447839
 72
     2
 10
104981.1789583829
 20
91893.80516411493
 40
2961.272166041676
 50
257.1629146881614
 51
358.8370853117459
 73
     0
 72
     1
 10
107941.8411889871
 20
91953.90506134176
 11
107941.841188987
 21
42419.71860701207
 72
     1
 10
107941.841188987
 20
42419.71860701207
 11
121218.1847411904
 21
42419.7186070116
 72
     1
 10
121218.1847411904
 20
42419.7186070116
 11
121218.1847411906
 21
100325.0440555206
 72
     2
 10
115257.0429927786
 20
99877.23760612903
 40
5977.937902050918
 50
4.296042690475857
 51
69.70395730952316
 73
     1
 72
     2
 10
117146.8808736564
 20
109112.6270894137
 40
3633.253173235043
 50
272.8987004041956
 51
343.1012995957967
 73
     1
 72
     2
 10
107238.4034856646
 20
112122.807202992
 40
13988.8849002001
 50
343.1012995958001
 51
357.9328247994059
 73
     1
 72
     1
 10
121218.1847411906
 20
111618.2115245613
 11
121218.1847411905
 21
150938.3506316522
 72
     2
 10
117501.9377644241
 20
150938.3506316523
 40
3716.246976766372
 50
359.9999999999992
 51
450.0000000000004
 73
     1
 72
     1
 10
117501.9377644241
 20
154654.5976084187
 11
113759.3810577393
 21
154654.5976084182
 72
     2
 10
138821.7376305251
 20
43198.45589605923
 40
114239.1931098381
 50
102.672909136411
 51
117.4995807340575
 73
     1
 72
     1
 10
86072.69013612203
 20
144530.243755645
 11
86072.69013612182
 21
42419.71860701206
 72
     1
 10
86072.69013612182
 20
42419.71860701207
 11
99587.9892175987
 21
42419.71860701207
 97
        0
 92
        1
 93
        6
 72
     1
 10
99587.9892175987
 20
106990.7139084901
 11
106513.3266407933
 21
109375.2988146446
 72
     2
 10
105781.2900249622
 20
111413.010849934
 40
2165.213140935683
 50
289.7605409069777
 51
356.2394590929184
 73
     1
 72
     1
 10
107941.8411889871
 20
111271.001648431
 11
107941.8411889873
 21
136146.3715334163
 72
     2
 10
106971.8497563286
 20
136110.2439563157
 40
970.663989884431
 50
2.133009904533575
 51
112.1330099047764
 73
     1
 72
     1
 10
106606.1443298939
 20
137009.3813887111
 11
99587.9892175987
 21
133736.7619137283
 72
     1
 10
99587.9892175987
 20
133736.7619137283
 11
99587.9892175987
 21
106990.7139084901
 97
        0
 92
        1
 93
        3
 72
     1
 10
51087.04573740561
 20
89526.02661651836
 11
64132.70340177392
 21
96757.35274203249
 72
     1
 10
64132.70340177394
 20
96757.35274203249
 11
64132.70340177408
 21
113061.0160419619
 72
     2
 10
86373.34223488702
 20
85349.67085119694
 40
35532.58600196028
 50
128.7499156981673
 51
173.2500843018337
 73
     1
 97
        0
 92
        1
 93
        7
 72
     2
 10
159498.6066256473
 20
47171.09768479351
 40
4751.379077781432
 50
269.9999999999983
 51
360.0000000000004
 73
     1
 72
     1
 10
164249.9857034287
 20
47171.09768479354
 11
164249.9857034286
 21
148929.7251247162
 72
     2
 10
153104.0551340759
 20
145652.2312742628
 40
11617.81968342559
 50
16.38612894579416
 51
85.61387105420656
 73
     1
 72
     1
 10
153992.558609905
 20
157236.0258067134
 11
135476.7284421168
 21
157236.025806713
 72
     2
 10
135476.7284421172
 20
132203.633223968
 40
25032.39258274507
 50
90.00000000000087
 51
104.0000000000446
 73
     1
 72
     1
 10
129420.8445770855
 20
156492.4567654637
 11
129420.8445770854
 21
42419.7186070116
 72
     1
 10
129420.8445770854
 20
42419.7186070116
 11
159498.6066256472
 21
42419.71860701208
 97
        0
 92
        1
 93
        6
 72
     1
 10
142697.1881292888
 20
55489.83103482368
 11
149159.4554178724
 21
55489.831034824
 72
     2
 10
149159.4554178724
 20
57304.01776817661
 40
1814.186733352632
 50
270.0000000000007
 51
360.000000000001
 73
     1
 72
     1
 10
150973.642151225
 20
57304.01776817664
 11
150973.642151225
 21
141389.8290366245
 72
     2
 10
148487.8771841638
 20
141389.8290366245
 40
2485.764967061216
 50
0.0000000000003499
 51
90.00000000000033
 73
     1
 72
     1
 10
148487.8771841638
 20
143875.5940036857
 11
142697.1881292891
 21
143875.5940036856
 72
     1
 10
142697.1881292891
 20
143875.5940036856
 11
142697.1881292888
 21
55489.83103482369
 97
        0
 92
        1
 93
       12
 72
     1
 10
172919.8140256379
 20
42419.7186070116
 11
196992.984425274
 21
42419.7186070116
 72
     1
 10
196992.984425274
 20
42419.7186070116
 11
196992.984425274
 21
54546.71171763528
 72
     1
 10
196992.984425274
 20
54546.71171763528
 11
186196.1575778416
 21
54546.71171763528
 72
     1
 10
186196.1575778416
 20
54546.71171763528
 11
186196.1575778406
 21
93476.59036180981
 72
     2
 10
161707.488942156
 20
-25181.90177575424
 40
121159.12119155
 50
281.6609520622133
 51
293.4724250161588
 73
     0
 72
     1
 10
209966.0956403323
 20
85951.52941153274
 11
209966.0956403329
 21
99223.70245050954
 72
     2
 10
169092.3307322618
 20
11417.28922520742
 40
96853.6569327807
 50
65.03808668413701
 51
79.82853623748811
 73
     1
 72
     1
 10
186196.1575778414
 20
106748.763400787
 11
186196.1575778407
 21
134522.6524809155
 72
     2
 10
149649.8952597929
 20
7420.910997906968
 40
132251.585916514
 50
286.0418218054057
 51
291.9581781945935
 73
     0
 72
     1
 10
199102.6932269282
 20
130078.5758650272
 11
199102.6932269291
 21
145460.8194053911
 72
     2
 10
152033.610092587
 20
51290.32160925423
 40
105278.5887171737
 50
63.44281790000926
 51
78.55718209999064
 73
     1
 72
     1
 10
172919.8140256382
 20
154476.3077098232
 11
172919.8140256379
 21
42419.7186070116
 97
        0
 92
        1
 93
       15
 72
     1
 10
200843.9943688388
 20
42419.7186070116
 11
214718.2128208543
 21
42419.7186070116
 72
     1
 10
214718.2128208543
 20
42419.7186070116
 11
225840.6682517806
 21
68725.18316101737
 72
     1
 10
225840.6682517806
 20
68725.18316101737
 11
232246.5421246085
 21
48633.89078637936
 72
     2
 10
215878.5940257774
 20
72169.27135408337
 40
28667.47047495972
 50
304.8171215495268
 51
337.1828784504726
 73
     1
 72
     2
 10
238905.8055971146
 20
62481.42481598525
 40
3685.339995417663
 50
337.1828784504702
 51
369.7138375590516
 73
     1
 72
     1
 10
242538.3079454534
 20
63103.24277257604
 11
234416.0142442291
 21
86692.09649134927
 72
     2
 10
240052.5154725337
 20
88337.50986077392
 40
5871.757083953601
 50
163.7263636887576
 51
201.7263636887611
 73
     0
 72
     1
 10
234597.8742693718
 20
90511.0830934322
 11
240977.2733653132
 21
106520.3588046445
 72
     2
 10
236381.088340801
 20
108071.7744474019
 40
4850.959418109156
 50
341.3481872592003
 51
383.0214723187967
 73
     1
 72
     2
 10
203805.420895314
 20
91153.86535333568
 40
41545.00353168846
 50
26.92877030208263
 51
46.67979184903328
 73
     1
 72
     1
 10
232308.408978194
 20
121379.136051796
 11
228002.309532135
 21
109548.225057822
 72
     1
 10
228002.309532135
 20
109548.225057822
 11
221642.4787337427
 21
132015.9486933683
 72
     2
 10
168731.8755011547
 20
67203.36186232325
 40
83667.21787037084
 50
50.7730691213507
 51
64.40933290079502
 73
     1
 72
     1
 10
204870.9968443084
 20
142663.0680286801
 11
219652.9064905008
 21
89079.28160512716
 72
     1
 10
219652.9064905008
 20
89079.28160512716
 11
200843.9943688388
 21
42419.7186070116
 97
        0
 92
        1
 93
       11
 72
     1
 10
60760.25147079707
 20
33473.4471139251
 11
225743.0881782895
 21
33473.44711392544
 72
     2
 10
195728.5048987643
 20
89689.63940362025
 40
63727.03888457004
 50
298.0983598942144
 51
325.3528772494833
 73
     1
 72
     2
 10
207631.5266048101
 20
81463.83807677157
 40
49258.25409788611
 50
325.3528772494843
 51
362.6471227505195
 73
     1
 72
     2
 10
186230.686382898
 20
80474.39359199833
 40
70681.95505248924
 50
2.647122750518907
 51
35.35287724949006
 73
     1
 72
     2
 10
169807.2708636503
 20
68823.19701422783
 40
90818.46316615475
 50
35.35287724949011
 51
57.50026675947552
 73
     1
 72
     2
 10
145773.4884706048
 20
31097.32782319365
 40
135549.4803950897
 50
57.50026675947544
 51
91.06601590221627
 73
     1
 72
     2
 10
140729.851178483
 20
31097.32782319106
 40
135549.4803950918
 50
88.93398409778516
 51
122.4997332405255
 73
     1
 72
     2
 10
116696.06878544
 20
68823.19701422378
 40
90818.46316615935
 50
122.4997332405263
 51
144.6471227505104
 73
     1
 72
     2
 10
100272.6532661892
 20
80474.39359199847
 40
70681.95505248945
 50
144.6471227505111
 51
177.3528772494822
 73
     1
 72
     2
 10
78871.81304427679
 20
81463.83807677159
 40
49258.25409788603
 50
177.3528772494818
 51
214.6471227505157
 73
     1
 72
     2
 10
90774.83475031492
 20
89689.63940361074
 40
63727.03888455833
 50
214.6471227505147
 51
241.9016401057878
 73
     1
 97
        0
 92
        1
 93
       11
 72
     2
 10
90774.83475032144
 20
89689.63940361852
 40
76114.49352209958
 50
115.6676497836031
 51
145.3528772494841
 73
     0
 72
     2
 10
78871.81304427716
 20
81463.83807677169
 40
61645.7087354179
 50
145.3528772494848
 51
182.6471227505183
 73
     0
 72
     2
 10
100272.6532661902
 20
80474.39359199792
 40
83069.40969002218
 50
182.6471227505189
 51
215.3528772494895
 73
     0
 72
     2
 10
116696.0687854374
 20
68823.19701422652
 40
103205.9178036874
 50
215.3528772494901
 51
237.500266759475
 73
     0
 72
     2
 10
140729.8511784818
 20
31097.32782319603
 40
147936.9350326188
 50
237.5002667594748
 51
270.9767443388683
 73
     0
 72
     2
 10
145773.488470605
 20
31097.32782319397
 40
147936.9350326207
 50
269.0232556611323
 51
302.4997332405255
 73
     0
 72
     2
 10
169807.2708636478
 20
68823.19701422454
 40
103205.9178036901
 50
302.4997332405259
 51
324.6471227505102
 73
     0
 72
     2
 10
186230.6863828967
 20
80474.39359199808
 40
83069.40969002223
 50
324.6471227505111
 51
357.3528772494815
 73
     0
 72
     2
 10
207631.5266048085
 20
81463.8380767721
 40
61645.70873541929
 50
357.3528772494821
 51
394.6471227505164
 73
     0
 72
     2
 10
195728.5048987675
 20
89689.63940361675
 40
76114.49352209723
 50
34.64712275051661
 51
64.33235021639949
 73
     0
 72
     1
 10
228697.516901105
 20
21085.99247639351
 11
57805.82274798077
 21
21085.99247639414
 97
        0
 75
     0
 76
     1
 98
        1
 10
0.0
 20
0.0
450
        0
451
        0
460
0.0
461
0.0
452
        0
462
0.0
453
        0
470

1001
REVIT
1002
{
1070
     1
1000
333383
1002
}
1002
{
1070
     5
1000
769546
1002
}
  0
ENDBLK
  5
1FA
330
198
100
AcDbEntity
  8
0
100
AcDbBlockEnd
  0
BLOCK
  5
226
330
1FB
100
AcDbEntity
  8
0
100
AcDbBlockBegin
  2
_ARDEX_ Landscape Title block Weldtec Tanking - WPM 5000HD-769546-TANKED WALL-ROOF DECK JUNCTION
 70
     0
 10
0.0
 20
0.0
 30
0.0
  3
_ARDEX_ Landscape Title block Weldtec Tanking - WPM 5000HD-769546-TANKED WALL-ROOF DECK JUNCTION
  1

  0
LINE
  5
1FC
330
1FB
100
AcDbEntity
  8
_ARDEX - WELDTEC TANKING_
100
AcDbLine
 10
285.227182665069
 20
0.1047184170710639
 30
0.0
 11
285.227182665069
 21
20.10471841707107
 31
0.0
1001
REVIT
1002
{
1070
     1
1000
333383
1002
}
1002
{
1070
     5
1000
769546
1002
}
  0
LINE
  5
1FD
330
1FB
100
AcDbEntity
  8
_ARDEX - WELDTEC TANKING_
100
AcDbLine
 10
5.3206767357453
 20
0.1047184170705877
 30
0.0
 11
5.3206767357453
 21
20.1047184170714
 31
0.0
1001
REVIT
1002
{
1070
     1
1000
333383
1002
}
1002
{
1070
     5
1000
769546
1002
}
  0
LINE
  5
1FE
330
1FB
100
AcDbEntity
  8
_ARDEX - WELDTEC TANKING_
100
AcDbLine
 10
208.5398289799351
 20
10.10471841707111
 30
0.0
 11
255.7980057156809
 21
10.10471841707111
 31
0.0
1001
REVIT
1002
{
1070
     1
1000
333383
1002
}
1002
{
1070
     5
1000
769546
1002
}
  0
LINE
  5
1FF
330
1FB
100
AcDbEntity
  8
_ARDEX - WELDTEC TANKING_
100
AcDbLine
 10
285.3206767356986
 20
0.104718417071116
 30
0.0
 11
285.3206767356986
 21
20.10471841707112
 31
0.0
1001
REVIT
1002
{
1070
     1
1000
333383
1002
}
1002
{
1070
     5
1000
769546
1002
}
  0
LINE
  5
200
330
1FB
100
AcDbEntity
  8
_ARDEX - WELDTEC TANKING_
100
AcDbLine
 10
93.03982897993519
 20
0.1047184170707532
 30
0.0
 11
93.03982897993519
 21
20.10471841707112
 31
0.0
1001
REVIT
1002
{
1070
     1
1000
333383
1002
}
1002
{
1070
     5
1000
769546
1002
}
  0
LINE
  5
201
330
1FB
100
AcDbEntity
  8
_ARDEX - WELDTEC TANKING_
100
AcDbLine
 10
285.3206767356986
 20
0.1047184170711139
 30
0.0
 11
5.320676735745351
 21
0.1047184170711139
 31
0.0
1001
REVIT
1002
{
1070
     1
1000
333383
1002
}
1002
{
1070
     5
1000
769546
1002
}
  0
LINE
  5
202
330
1FB
100
AcDbEntity
  8
_ARDEX - WELDTEC TANKING_
100
AcDbLine
 10
5.3206767357453
 20
20.10471841707112
 30
0.0
 11
285.3206767356986
 21
20.10471841707112
 31
0.0
1001
REVIT
1002
{
1070
     1
1000
333383
1002
}
1002
{
1070
     5
1000
769546
1002
}
  0
LINE
  5
203
330
1FB
100
AcDbEntity
  8
_ARDEX - WELDTEC TANKING_
100
AcDbLine
 10
208.5398289799351
 20
20.10471841707112
 30
0.0
 11
208.5398289799351
 21
0.1047184170711139
 31
0.0
1001
REVIT
1002
{
1070
     1
1000
333383
1002
}
1002
{
1070
     5
1000
769546
1002
}
  0
LINE
  5
204
330
1FB
100
AcDbEntity
  8
_ARDEX - WELDTEC TANKING_
100
AcDbLine
 10
255.7980057156809
 20
0.1047184170711139
 30
0.0
 11
255.7980057156809
 21
20.10471841707112
 31
0.0
1001
REVIT
1002
{
1070
     1
1000
333383
1002
}
1002
{
1070
     5
1000
769546
1002
}
  0
ARC
  5
205
330
1FB
100
AcDbEntity
  8
_ARDEX - WELDTEC TANKING_
100
AcDbCircle
 10
264.7033458719065
 20
8.615450092703635
 30
0.0
 40
3.599904939316393
100
AcDbArc
 50
128.7499156981656
 51
173.2500843018355
1001
REVIT
1002
{
1070
     1
1000
333383
1002
}
1002
{
1070
     5
1000
769546
1002
}
  0
LINE
  5
206
330
1FB
100
AcDbEntity
  8
_ARDEX - WELDTEC TANKING_
100
AcDbLine
 10
261.1283932060786
 20
9.038568290379673
 30
0.0
 11
262.4500850035741
 21
9.771194016962288
 31
0.0
1001
REVIT
1002
{
1070
     1
1000
333383
1002
}
1002
{
1070
     5
1000
769546
1002
}
  0
LINE
  5
207
330
1FB
100
AcDbEntity
  8
_ARDEX - WELDTEC TANKING_
100
AcDbLine
 10
262.4500850035741
 20
9.771194016962288
 30
0.0
 11
262.4500850035741
 21
11.42296341081208
 31
0.0
1001
REVIT
1002
{
1070
     1
1000
333383
1002
}
1002
{
1070
     5
1000
769546
1002
}
  0
LINE
  5
208
330
1FB
100
AcDbEntity
  8
_ARDEX - WELDTEC TANKING_
100
AcDbLine
 10
266.0421584464195
 20
10.80796424829054
 30
0.0
 11
266.88851038299
 21
11.09938659061298
 31
0.0
1001
REVIT
1002
{
1070
     1
1000
333383
1002
}
1002
{
1070
     5
1000
769546
1002
}
  0
LINE
  5
209
330
1FB
100
AcDbEntity
  8
_ARDEX - WELDTEC TANKING_
100
AcDbLine
 10
266.88851038299
 20
11.09938659061298
 30
0.0
 11
266.88851038299
 21
13.91234101803232
 31
0.0
1001
REVIT
1002
{
1070
     1
1000
333383
1002
}
1002
{
1070
     5
1000
769546
1002
}
  0
LINE
  5
20A
330
1FB
100
AcDbEntity
  8
_ARDEX - WELDTEC TANKING_
100
AcDbLine
 10
266.88851038299
 20
13.91234101803232
 30
0.0
 11
266.0421584464195
 21
13.51768062851515
 31
0.0
1001
REVIT
1002
{
1070
     1
1000
333383
1002
}
1002
{
1070
     5
1000
769546
1002
}
  0
LINE
  5
20B
330
1FB
100
AcDbEntity
  8
_ARDEX - WELDTEC TANKING_
100
AcDbLine
 10
266.0421584464195
 20
13.51768062851515
 30
0.0
 11
266.0421584464195
 21
10.80796424829054
 31
0.0
1001
REVIT
1002
{
1070
     1
1000
333383
1002
}
1002
{
1070
     5
1000
769546
1002
}
  0
LINE
  5
20C
330
1FB
100
AcDbEntity
  8
_ARDEX - WELDTEC TANKING_
100
AcDbLine
 10
270.4096710750699
 20
5.590266819067662
 30
0.0
 11
271.2473149067903
 21
5.590266819067662
 31
0.0
1001
REVIT
1002
{
1070
     1
1000
333383
1002
}
1002
{
1070
     5
1000
769546
1002
}
  0
LINE
  5
20D
330
1FB
100
AcDbEntity
  8
_ARDEX - WELDTEC TANKING_
100
AcDbLine
 10
271.2473149067903
 20
5.590266819067662
 30
0.0
 11
271.2473149067903
 21
14.54487385665576
 31
0.0
1001
REVIT
1002
{
1070
     1
1000
333383
1002
}
1002
{
1070
     5
1000
769546
1002
}
  0
LINE
  5
20E
330
1FB
100
AcDbEntity
  8
_ARDEX - WELDTEC TANKING_
100
AcDbLine
 10
271.2473149067903
 20
14.54487385665576
 30
0.0
 11
270.4096710750699
 21
14.54487385665576
 31
0.0
1001
REVIT
1002
{
1070
     1
1000
333383
1002
}
1002
{
1070
     5
1000
769546
1002
}
  0
LINE
  5
20F
330
1FB
100
AcDbEntity
  8
_ARDEX - WELDTEC TANKING_
100
AcDbLine
 10
270.4096710750699
 20
14.54487385665576
 30
0.0
 11
270.4096710750699
 21
5.590266819067662
 31
0.0
1001
REVIT
1002
{
1070
     1
1000
333383
1002
}
1002
{
1070
     5
1000
769546
1002
}
  0
MTEXT
  5
211
330
1FB
100
AcDbEntity
  8
_ARDEX - WELDTEC TANKING_
100
AcDbMText
 10
210.3053465833535
 20
13.82166287222625
 30
0.0
 40
1.5
 41
9.95695875
 46
0.0
 71
     1
 72
     1
  1
DWG NO.
  7
Swis721 Lt BT_1
 73
     2
 44
1.0
1001
REVIT
1002
{
1070
     1
1000
333383
1002
}
1002
{
1070
     5
1000
769546
1002
}
  0
MTEXT
  5
212
330
1FB
100
AcDbEntity
  8
_ARDEX - WELDTEC TANKING_
100
AcDbMText
 10
210.3053465833535
 20
3.821662872225974
 30
0.0
 40
1.5
 41
6.998731874999998
 46
0.0
 71
     1
 72
     1
  1
SCALE
  7
Swis721 Lt BT_1
 73
     2
 44
1.0
1001
REVIT
1002
{
1070
     1
1000
333383
1002
}
1002
{
1070
     5
1000
769546
1002
}
  0
MTEXT
  5
214
330
1FB
100
AcDbEntity
  8
_ARDEX - WELDTEC TANKING_
100
AcDbMText
 10
227.0439951580743
 20
4.127661816395806
 30
0.0
 40
2.1
 41
8.730376874999999
 46
0.0
 71
     1
 72
     1
  1
@  A4
  7
Swis721 Lt BT_2
 73
     2
 44
1.0
1001
REVIT
1002
{
1070
     1
1000
333383
1002
}
1002
{
1070
     5
1000
769546
1002
}
  0
MTEXT
  5
215
330
1FB
100
AcDbEntity
  8
_ARDEX - WELDTEC TANKING_
100
AcDbMText
 10
210.3053465833535
 20
7.734351438880739
 30
0.0
 40
1.5
 41
5.62784625
 46
0.0
 71
     1
 72
     1
  1
DATE
  7
Swis721 Lt BT_1
 73
     2
 44
1.0
1001
REVIT
1002
{
1070
     1
1000
333383
1002
}
1002
{
1070
     5
1000
769546
1002
}
  0
MTEXT
  5
217
330
1FB
100
AcDbEntity
  8
_ARDEX - WELDTEC TANKING_
100
AcDbMText
 10
6.949872989435805
 20
8.938253401590928
 30
0.0
 40
0.7000000000000001
 41
6.6379725
 46
0.0
 71
     1
 72
     1
  1
Disclaimer: 
  7
Swis721 Lt BT_B
 73
     2
 44
1.0
1001
REVIT
1002
{
1070
     1
1000
333383
1002
}
1002
{
1070
     5
1000
769546
1002
}
  0
MTEXT
  5
219
330
1FB
100
AcDbEntity
  8
_ARDEX - WELDTEC TANKING_
100
AcDbMText
 10
12.4267479894358
 20
8.938253401590928
 30
0.0
 40
0.7000000000000001
 41
17.821513125
 46
0.0
 71
     1
 72
     1
  1
Ardex makes every reasonable effort
  7
Swis721 Lt BT_3
 73
     2
 44
1.0
1001
REVIT
1002
{
1070
     1
1000
333383
1002
}
1002
{
1070
     5
1000
769546
1002
}
  0
MTEXT
  5
21A
330
1FB
100
AcDbEntity
  8
_ARDEX - WELDTEC TANKING_
100
AcDbMText
 10
27.13096673943581
 20
8.938253401590928
 30
0.0
 40
0.7000000000000001
 41
0.3607593750000011
 46
0.0
 71
     1
 72
     1
  1
\fSwis721 Lt BT|b1|i0|c0|p34|;\W.9; 
  7
Swis721 Lt BT_B
 73
     2
 44
1.0
1001
REVIT
1002
{
1070
     1
1000
333383
1002
}
1002
{
1070
     5
1000
769546
1002
}
  0
MTEXT
  5
21B
330
1FB
100
AcDbEntity
  8
_ARDEX - WELDTEC TANKING_
100
AcDbMText
 10
27.42862298943581
 20
8.938253401590928
 30
0.0
 40
0.7000000000000001
 41
13.27594499999999
 46
0.0
 71
     1
 72
     1
  1
to ensure that the technical
  7
Swis721 Lt BT_3
 73
     2
 44
1.0
1001
REVIT
1002
{
1070
     1
1000
333383
1002
}
1002
{
1070
     5
1000
769546
1002
}
  0
MTEXT
  5
21C
330
1FB
100
AcDbEntity
  8
_ARDEX - WELDTEC TANKING_
100
AcDbMText
 10
38.3823729894358
 20
8.938253401590928
 30
0.0
 40
0.7000000000000001
 41
0.3607593750000057
 46
0.0
 71
     1
 72
     1
  1
\fSwis721 Lt BT|b1|i0|c0|p34|;\W.9; 
  7
Swis721 Lt BT_B
 73
     2
 44
1.0
1001
REVIT
1002
{
1070
     1
1000
333383
1002
}
1002
{
1070
     5
1000
769546
1002
}
  0
MTEXT
  5
21D
330
1FB
100
AcDbEntity
  8
_ARDEX - WELDTEC TANKING_
100
AcDbMText
 10
38.6800292394358
 20
8.938253401590928
 30
0.0
 40
0.7000000000000001
 41
59.95820812499999
 46
0.0
 71
     1
 72
     1
  1
details, recommendations and other information contained in this drawing are accurate and represent our knowledge and 
  7
Swis721 Lt BT_3
 73
     2
 44
1.0
1001
REVIT
1002
{
1070
     1
1000
333383
1002
}
1002
{
1070
     5
1000
769546
1002
}
  0
MTEXT
  5
21E
330
1FB
100
AcDbEntity
  8
_ARDEX - WELDTEC TANKING_
100
AcDbMText
 10
6.949872989435805
 20
7.681482568257595
 30
0.0
 40
0.7000000000000001
 41
98.920220625
 46
0.0
 71
     1
 72
     1
  1
experience at the time of design and publication. Ardex reserves the right to change the information without prior notice.  Ardex provides the information in good faith with no representations or warranties 
  7
Swis721 Lt BT_3
 73
     2
 44
1.0
1001
REVIT
1002
{
1070
     1
1000
333383
1002
}
1002
{
1070
     5
1000
769546
1002
}
  0
MTEXT
  5
21F
330
1FB
100
AcDbEntity
  8
_ARDEX - WELDTEC TANKING_
100
AcDbMText
 10
6.949872989435805
 20
6.424711734924262
 30
0.0
 40
0.7000000000000001
 41
100.1468025
 46
0.0
 71
     1
 72
     1
  1
(whether implied or otherwise), and will not be liable for any losses or damages (whether direct, indirect or consequential) whatsoever, whether in contract, negligence  or any other action, arising out of or in 
  7
Swis721 Lt BT_3
 73
     2
 44
1.0
1001
REVIT
1002
{
1070
     1
1000
333383
1002
}
1002
{
1070
     5
1000
769546
1002
}
  0
MTEXT
  5
220
330
1FB
100
AcDbEntity
  8
_ARDEX - WELDTEC TANKING_
100
AcDbMText
 10
6.949872989435805
 20
5.167940901590927
 30
0.0
 40
0.7000000000000001
 41
29.221509375
 46
0.0
 71
     1
 72
     1
  1
connection with the use, or inability to use, the information.  
  7
Swis721 Lt BT_3
 73
     2
 44
1.0
1001
REVIT
1002
{
1070
     1
1000
333383
1002
}
1002
{
1070
     5
1000
769546
1002
}
  0
MTEXT
  5
221
330
1FB
100
AcDbEntity
  8
_ARDEX - WELDTEC TANKING_
100
AcDbMText
 10
6.949872989435805
 20
3.911170068257595
 30
0.0
 40
0.7000000000000001
 41
100.1468025
 46
0.0
 71
     1
 72
     1
  1
It is your responsibility to ensure that our products are used only for the purposes for which they are intended and are used in accordance with any applicable specifications, guidelines, standards, codes of 
  7
Swis721 Lt BT_3
 73
     2
 44
1.0
1001
REVIT
1002
{
1070
     1
1000
333383
1002
}
1002
{
1070
     5
1000
769546
1002
}
  0
MTEXT
  5
222
330
1FB
100
AcDbEntity
  8
_ARDEX - WELDTEC TANKING_
100
AcDbMText
 10
6.949872989435805
 20
2.654399234924261
 30
0.0
 40
0.7000000000000001
 41
79.94427750000001
 46
0.0
 71
     1
 72
     1
  1
practice, regulations and laws. The supply of our products and services are also subject to certain terms, warranties and exclusions which are available on request.
  7
Swis721 Lt BT_3
 73
     2
 44
1.0
1001
REVIT
1002
{
1070
     1
1000
333383
1002
}
1002
{
1070
     5
1000
769546
1002
}
  0
MTEXT
  5
224
330
1FB
100
AcDbEntity
  8
_ARDEX - WELDTEC TANKING_
 62
   133
420
  7589074
100
AcDbMText
 10
25.56362189831388
 20
16.95786991695462
 30
0.0
 40
5.0
 41
56.062006875
 46
0.0
 71
     1
 72
     1
  1
WPM 5000HD
  7
Arial Black
 73
     2
 44
1.0
1001
REVIT
1002
{
1070
     1
1000
333383
1002
}
1002
{
1070
     5
1000
769546
1002
}
  0
INSERT
  5
225
330
1FB
100
AcDbEntity
  8
0
100
AcDbBlockReference
  2
_ARDEX_ Landscape Title block Weldtec Tanking - ARDEX Logo_dwg-792302-TANKED WALL-ROOF DECK JUNCTION
 10
255.9526227660936
 20
-0.0315620231414546
 30
0.0
 41
0.0001013127763658
 42
0.0001013127763658
 43
0.0001013127763658
  0
ENDBLK
  5
227
330
1FB
100
AcDbEntity
  8
0
100
AcDbBlockEnd
  0
ENDSEC
  0
SECTION
  2
ENTITIES
  0
INSERT
  5
C2
330
70
100
AcDbEntity
  8
_ARDEX - WELDTEC TANKING_
100
AcDbBlockReference
  2
_ARDEX_ Lines - WPM240 Primer-754984-_HD_ - AS-07 TANKED WALL_ROOF DECK JUNCTION
 10
3511.884094877892
 20
2311.211134280064
 30
0.0
 50
89.99999999999989
1001
REVIT
1002
{
1070
     1
1000
753690
1002
}
1002
{
1070
     5
1000
708929
1002
}
1002
{
1070
     2
1000
-2002000
1002
}
  0
INSERT
  5
C8
330
70
100
AcDbEntity
  8
_ARDEX - WELDTEC TANKING_
 62
   133
420
  7589074
100
AcDbBlockReference
  2
_ARDEX_ Lines - WPM 5000HD DPM Underflashing Membrane-755071-_HD_ - AS-07 TANKED WALL_ROOF DECK JUNCTION
 10
3508.884094877892
 20
2345.952878623229
 30
0.0
 50
89.99999999999989
1001
REVIT
1002
{
1070
     1
1000
753693
1002
}
1002
{
1070
     5
1000
713607
1002
}
1002
{
1070
     2
1000
-2002000
1002
}
  0
INSERT
  5
E0
330
70
100
AcDbEntity
  8
_ARDEX - WELDTEC TANKING_
100
AcDbBlockReference
  2
_ARDEX_ Concrete Base 7 - _ARDEX_ Concrete Base 7-754219-_HD_ - AS-07 TANKED WALL_ROOF DECK JUNCTION
 10
3564.884094877892
 20
2591.257788497115
 30
0.0
 41
1.0
 42
1.0
 43
1.0
 50
269.9999999999998
1001
REVIT
1002
{
1070
     1
1000
754221
1002
}
1002
{
1070
     5
1000
754219
1002
}
1002
{
1070
     2
1000
-2002000
1002
}
  0
INSERT
  5
F0
330
70
100
AcDbEntity
  8
_ARDEX - WELDTEC TANKING_
100
AcDbBlockReference
  2
_ARDEX_ Lining - Various - Concrete Wall 150-754656-_HD_ - AS-07 TANKED WALL_ROOF DECK JUNCTION
 10
3514.884094877892
 20
2436.257788497117
 30
0.0
 50
270.0
1001
REVIT
1002
{
1070
     1
1000
754605
1002
}
1002
{
1070
     5
1000
753775
1002
}
1002
{
1070
     2
1000
-2002000
1002
}
  0
INSERT
  5
FD
330
70
100
AcDbEntity
  8
_ARDEX - WELDTEC TANKING_
100
AcDbBlockReference
  2
_ARDEX_ Waterstop - _ARDEX_ Water Stop-708192-_HD_ - AS-07 TANKED WALL_ROOF DECK JUNCTION
 10
3601.376883992589
 20
2436.257788497117
 30
0.0
1001
REVIT
1002
{
1070
     1
1000
754777
1002
}
1002
{
1070
     5
1000
707735
1002
}
1002
{
1070
     2
1000
-2002000
1002
}
  0
INSERT
  5
102
330
70
100
AcDbEntity
  8
_ARDEX - WELDTEC TANKING_
 62
   133
420
  7589074
100
AcDbBlockReference
  2
_ARDEX_ Lines - WPM 5000HD DPM Membrane-757949-_HD_ - AS-07 TANKED WALL_ROOF DECK JUNCTION
 10
3508.884094877892
 20
2311.211134280061
 30
0.0
 50
90.0
1001
REVIT
1002
{
1070
     1
1000
755354
1002
}
1002
{
1070
     5
1000
708233
1002
}
1002
{
1070
     2
1000
-2002000
1002
}
  0
INSERT
  5
107
330
70
100
AcDbEntity
  8
_ARDEX - WELDTEC TANKING_
 62
   133
420
  7589074
100
AcDbBlockReference
  2
_ARDEX_ Lines - WPM 5000HD DPM Membrane-757950-_HD_ - AS-07 TANKED WALL_ROOF DECK JUNCTION
 10
3508.884094877892
 20
2341.008676695251
 30
0.0
 50
127.3564137507643
1001
REVIT
1002
{
1070
     1
1000
755448
1002
}
1002
{
1070
     5
1000
708233
1002
}
1002
{
1070
     2
1000
-2002000
1002
}
  0
INSERT
  5
10C
330
70
100
AcDbEntity
  8
_ARDEX - WELDTEC TANKING_
 62
   133
420
  7589074
100
AcDbBlockReference
  2
_ARDEX_ Lines - WPM 5000HD DPM Membrane-757951-_HD_ - AS-07 TANKED WALL_ROOF DECK JUNCTION
 10
3505.884094877892
 20
2344.938706301321
 30
0.0
 50
89.99999999999984
1001
REVIT
1002
{
1070
     1
1000
755880
1002
}
1002
{
1070
     5
1000
708233
1002
}
1002
{
1070
     2
1000
-2002000
1002
}
  0
INSERT
  5
111
330
70
100
AcDbEntity
  8
_ARDEX - WELDTEC TANKING_
 62
   133
420
  7589074
100
AcDbBlockReference
  2
_ARDEX_ Lines - WPM 5000HD DPM Membrane-757952-_HD_ - AS-07 TANKED WALL_ROOF DECK JUNCTION
 10
3505.884094877893
 20
2547.195519310348
 30
0.0
 50
45.0
1001
REVIT
1002
{
1070
     1
1000
755931
1002
}
1002
{
1070
     5
1000
708233
1002
}
1002
{
1070
     2
1000
-2002000
1002
}
  0
INSERT
  5
116
330
70
100
AcDbEntity
  8
_ARDEX - WELDTEC TANKING_
 62
   133
420
  7589074
100
AcDbBlockReference
  2
_ARDEX_ Lines - WPM 5000HD DPM Membrane-757953-_HD_ - AS-07 TANKED WALL_ROOF DECK JUNCTION
 10
3508.884094877892
 20
2550.195519310348
 30
0.0
 50
90.0
1001
REVIT
1002
{
1070
     1
1000
756059
1002
}
1002
{
1070
     5
1000
708233
1002
}
1002
{
1070
     2
1000
-2002000
1002
}
  0
INSERT
  5
149
330
70
100
AcDbEntity
  8
_ARDEX - WELDTEC TANKING_
100
AcDbBlockReference
  2
_ARDEX_ Pressure Bar 10801 - _ARDEX_ Waterproofing Membrane-757924-_HD_ - AS-07 TANKED WALL_ROOF DECK JUNCTION
 10
3438.84727600009
 20
2373.118033351993
 30
0.0
1001
REVIT
1002
{
1070
     1
1000
756802
1002
}
1002
{
1070
     5
1000
757505
1002
}
1002
{
1070
     2
1000
-2002000
1002
}
  0
CIRCLE
  5
14A
330
70
100
AcDbEntity
  8
_ARDEX - WELDTEC TANKING_
100
AcDbCircle
 10
3511.793353136199
 20
2375.651330238764
 30
0.0
 40
1.499999999999851
1001
REVIT
1002
{
1070
     1
1000
753692
1002
}
1002
{
1070
     5
1000
372253
1002
}
1002
{
1070
     2
1000
-2005022
1002
}
  0
HATCH
  5
14B
330
70
100
AcDbEntity
  8
_ARDEX - WELDTEC TANKING_
100
AcDbHatch
 10
0.0
 20
0.0
 30
0.0
210
0.0
220
0.0
230
1.0
  2
SOLID
 70
     1
 71
     0
 91
        1
 92
        1
 93
        1
 72
     2
 10
3511.793353136199
 20
2375.651330238764
 40
1.499999999999851
 50
0.0
 51
360.0
 73
     1
 97
        0
 75
     0
 76
     1
 98
        1
 10
0.0
 20
0.0
450
        0
451
        0
460
0.0
461
0.0
452
        0
462
0.0
453
        0
470

1001
REVIT
1002
{
1070
     1
1000
753692
1002
}
1002
{
1070
     5
1000
372253
1002
}
1002
{
1070
     2
1000
-2005022
1002
}
  0
LINE
  5
14C
330
70
100
AcDbEntity
  8
_ARDEX - WELDTEC TANKING_
100
AcDbLine
 10
3511.793353136199
 20
2375.651330238764
 30
0.0
 11
3471.9745877489
 21
2375.661330238764
 31
0.0
1001
REVIT
1002
{
1070
     1
1000
753692
1002
}
1002
{
1070
     5
1000
372253
1002
}
1002
{
1070
     2
1000
-2005022
1002
}
  0
MTEXT
  5
14E
330
70
100
AcDbEntity
  8
_ARDEX - WELDTEC TANKING_
100
AcDbMText
 10
3389.2945877489
 20
2384.357371905431
 30
0.0
 40
4.0
 41
100.0506
 46
0.0
 71
     1
 72
     1
  1
ARDEX WPM 240/247 OR ARDEX
  7
Swis721 Lt BT
 73
     2
 44
1.0
1001
REVIT
1002
{
1070
     1
1000
753692
1002
}
1002
{
1070
     5
1000
372253
1002
}
1002
{
1070
     2
1000
-2005022
1002
}
  0
MTEXT
  5
14F
330
70
100
AcDbEntity
  8
_ARDEX - WELDTEC TANKING_
100
AcDbMText
 10
3389.2945877489
 20
2377.610496905431
 30
0.0
 40
4.0
 41
89.30798749999999
 46
0.0
 71
     1
 72
     1
  1
WPM 300 FOR DAMP/GREEN
  7
Swis721 Lt BT
 73
     2
 44
1.0
1001
REVIT
1002
{
1070
     1
1000
753692
1002
}
1002
{
1070
     5
1000
372253
1002
}
1002
{
1070
     2
1000
-2005022
1002
}
  0
MTEXT
  5
150
330
70
100
AcDbEntity
  8
_ARDEX - WELDTEC TANKING_
100
AcDbMText
 10
3389.2945877489
 20
2370.863621905431
 30
0.0
 40
4.0
 41
36.236275
 46
0.0
 71
     1
 72
     1
  1
CONCRETE
  7
Swis721 Lt BT
 73
     2
 44
1.0
1001
REVIT
1002
{
1070
     1
1000
753692
1002
}
1002
{
1070
     5
1000
372253
1002
}
1002
{
1070
     2
1000
-2005022
1002
}
  0
CIRCLE
  5
151
330
70
100
AcDbEntity
  8
_ARDEX - WELDTEC TANKING_
100
AcDbCircle
 10
3508.999822907423
 20
2452.076489277164
 30
0.0
 40
1.500000000000477
1001
REVIT
1002
{
1070
     1
1000
753695
1002
}
1002
{
1070
     5
1000
372253
1002
}
1002
{
1070
     2
1000
-2005022
1002
}
  0
HATCH
  5
152
330
70
100
AcDbEntity
  8
_ARDEX - WELDTEC TANKING_
100
AcDbHatch
 10
0.0
 20
0.0
 30
0.0
210
0.0
220
0.0
230
1.0
  2
SOLID
 70
     1
 71
     0
 91
        1
 92
        1
 93
        1
 72
     2
 10
3508.999822907423
 20
2452.076489277164
 40
1.500000000000477
 50
0.0
 51
360.0
 73
     1
 97
        0
 75
     0
 76
     1
 98
        1
 10
0.0
 20
0.0
450
        0
451
        0
460
0.0
461
0.0
452
        0
462
0.0
453
        0
470

1001
REVIT
1002
{
1070
     1
1000
753695
1002
}
1002
{
1070
     5
1000
372253
1002
}
1002
{
1070
     2
1000
-2005022
1002
}
  0
LINE
  5
153
330
70
100
AcDbEntity
  8
_ARDEX - WELDTEC TANKING_
100
AcDbLine
 10
3508.999822907423
 20
2452.076489277164
 30
0.0
 11
3480.9745877489
 21
2452.086489277164
 31
0.0
1001
REVIT
1002
{
1070
     1
1000
753695
1002
}
1002
{
1070
     5
1000
372253
1002
}
1002
{
1070
     2
1000
-2005022
1002
}
  0
MTEXT
  5
154
330
70
100
AcDbEntity
  8
_ARDEX - WELDTEC TANKING_
100
AcDbMText
 10
3389.2945877489
 20
2460.782530943831
 30
0.0
 40
4.0
 41
81.61178750000001
 46
0.0
 71
     1
 72
     1
  1
ARDEX WPM 5000HD DPM
  7
Swis721 Lt BT
 73
     2
 44
1.0
1001
REVIT
1002
{
1070
     1
1000
753695
1002
}
1002
{
1070
     5
1000
372253
1002
}
1002
{
1070
     2
1000
-2005022
1002
}
  0
MTEXT
  5
155
330
70
100
AcDbEntity
  8
_ARDEX - WELDTEC TANKING_
100
AcDbMText
 10
3389.2945877489
 20
2454.03565594383
 30
0.0
 40
4.0
 41
110.95355
 46
0.0
 71
     1
 72
     1
  1
UNDERFLASHING MINIMUM 300mm
  7
Swis721 Lt BT
 73
     2
 44
1.0
1001
REVIT
1002
{
1070
     1
1000
753695
1002
}
1002
{
1070
     5
1000
372253
1002
}
1002
{
1070
     2
1000
-2005022
1002
}
  0
MTEXT
  5
156
330
70
100
AcDbEntity
  8
_ARDEX - WELDTEC TANKING_
100
AcDbMText
 10
3389.2945877489
 20
2447.288780943831
 30
0.0
 40
4.0
 41
16.5147625
 46
0.0
 71
     1
 72
     1
  1
WIDE
  7
Swis721 Lt BT
 73
     2
 44
1.0
1001
REVIT
1002
{
1070
     1
1000
753695
1002
}
1002
{
1070
     5
1000
372253
1002
}
1002
{
1070
     2
1000
-2005022
1002
}
  0
CIRCLE
  5
157
330
70
100
AcDbEntity
  8
_ARDEX - WELDTEC TANKING_
100
AcDbCircle
 10
3497.940271245393
 20
2522.293008011926
 30
0.0
 40
1.500000000000454
1001
REVIT
1002
{
1070
     1
1000
757939
1002
}
1002
{
1070
     5
1000
372253
1002
}
1002
{
1070
     2
1000
-2005022
1002
}
  0
HATCH
  5
158
330
70
100
AcDbEntity
  8
_ARDEX - WELDTEC TANKING_
100
AcDbHatch
 10
0.0
 20
0.0
 30
0.0
210
0.0
220
0.0
230
1.0
  2
SOLID
 70
     1
 71
     0
 91
        1
 92
        1
 93
        1
 72
     2
 10
3497.940271245393
 20
2522.293008011926
 40
1.500000000000454
 50
0.0
 51
360.0
 73
     1
 97
        0
 75
     0
 76
     1
 98
        1
 10
0.0
 20
0.0
450
        0
451
        0
460
0.0
461
0.0
452
        0
462
0.0
453
        0
470

1001
REVIT
1002
{
1070
     1
1000
757939
1002
}
1002
{
1070
     5
1000
372253
1002
}
1002
{
1070
     2
1000
-2005022
1002
}
  0
LINE
  5
159
330
70
100
AcDbEntity
  8
_ARDEX - WELDTEC TANKING_
100
AcDbLine
 10
3497.940271245393
 20
2522.293008011926
 30
0.0
 11
3482.9545877489
 21
2522.293008011926
 31
0.0
1001
REVIT
1002
{
1070
     1
1000
757939
1002
}
1002
{
1070
     5
1000
372253
1002
}
1002
{
1070
     2
1000
-2005022
1002
}
  0
MTEXT
  5
15A
330
70
100
AcDbEntity
  8
_ARDEX - WELDTEC TANKING_
100
AcDbMText
 10
3389.2945877489
 20
2527.619049678592
 30
0.0
 40
4.0
 41
113.3586125
 46
0.0
 71
     1
 72
     1
  1
ARDEX PRESSURE BAR 10801 FIXED
  7
Swis721 Lt BT
 73
     2
 44
1.0
1001
REVIT
1002
{
1070
     1
1000
757939
1002
}
1002
{
1070
     5
1000
372253
1002
}
1002
{
1070
     2
1000
-2005022
1002
}
  0
MTEXT
  5
15B
330
70
100
AcDbEntity
  8
_ARDEX - WELDTEC TANKING_
100
AcDbMText
 10
3389.2945877489
 20
2520.872174678592
 30
0.0
 40
4.0
 41
51.7890125
 46
0.0
 71
     1
 72
     1
  1
@ 200 CENTRES
  7
Swis721 Lt BT
 73
     2
 44
1.0
1001
REVIT
1002
{
1070
     1
1000
757939
1002
}
1002
{
1070
     5
1000
372253
1002
}
1002
{
1070
     2
1000
-2005022
1002
}
  0
CIRCLE
  5
15C
330
70
100
AcDbEntity
  8
_ARDEX - WELDTEC TANKING_
100
AcDbCircle
 10
3505.438662987205
 20
2488.096361342018
 30
0.0
 40
1.5
1001
REVIT
1002
{
1070
     1
1000
757966
1002
}
1002
{
1070
     5
1000
372253
1002
}
1002
{
1070
     2
1000
-2005022
1002
}
  0
HATCH
  5
15D
330
70
100
AcDbEntity
  8
_ARDEX - WELDTEC TANKING_
100
AcDbHatch
 10
0.0
 20
0.0
 30
0.0
210
0.0
220
0.0
230
1.0
  2
SOLID
 70
     1
 71
     0
 91
        1
 92
        1
 93
        1
 72
     2
 10
3505.438662987205
 20
2488.096361342018
 40
1.5
 50
0.0
 51
360.0
 73
     1
 97
        0
 75
     0
 76
     1
 98
        1
 10
0.0
 20
0.0
450
        0
451
        0
460
0.0
461
0.0
452
        0
462
0.0
453
        0
470

1001
REVIT
1002
{
1070
     1
1000
757966
1002
}
1002
{
1070
     5
1000
372253
1002
}
1002
{
1070
     2
1000
-2005022
1002
}
  0
LINE
  5
15E
330
70
100
AcDbEntity
  8
_ARDEX - WELDTEC TANKING_
100
AcDbLine
 10
3505.438662987205
 20
2488.096361342018
 30
0.0
 11
3456.7545877489
 21
2488.096361342018
 31
0.0
1001
REVIT
1002
{
1070
     1
1000
757966
1002
}
1002
{
1070
     5
1000
372253
1002
}
1002
{
1070
     2
1000
-2005022
1002
}
  0
MTEXT
  5
15F
330
70
100
AcDbEntity
  8
_ARDEX - WELDTEC TANKING_
100
AcDbMText
 10
3389.2945877489
 20
2493.422403008685
 30
0.0
 40
4.0
 41
81.61178750000001
 46
0.0
 71
     1
 72
     1
  1
ARDEX WPM 5000HD DPM
  7
Swis721 Lt BT
 73
     2
 44
1.0
1001
REVIT
1002
{
1070
     1
1000
757966
1002
}
1002
{
1070
     5
1000
372253
1002
}
1002
{
1070
     2
1000
-2005022
1002
}
  0
MTEXT
  5
160
330
70
100
AcDbEntity
  8
_ARDEX - WELDTEC TANKING_
100
AcDbMText
 10
3389.2945877489
 20
2486.675528008685
 30
0.0
 40
4.0
 41
37.518975
 46
0.0
 71
     1
 72
     1
  1
MEMBRANE
  7
Swis721 Lt BT
 73
     2
 44
1.0
1001
REVIT
1002
{
1070
     1
1000
757966
1002
}
1002
{
1070
     5
1000
372253
1002
}
1002
{
1070
     2
1000
-2005022
1002
}
  0
CIRCLE
  5
161
330
70
100
AcDbEntity
  8
_ARDEX - WELDTEC TANKING_
100
AcDbCircle
 10
3500.7197215952
 20
2571.45508982481
 30
0.0
 40
1.500000000000454
1001
REVIT
1002
{
1070
     1
1000
757973
1002
}
1002
{
1070
     5
1000
372261
1002
}
1002
{
1070
     2
1000
-2005022
1002
}
  0
HATCH
  5
162
330
70
100
AcDbEntity
  8
_ARDEX - WELDTEC TANKING_
100
AcDbHatch
 10
0.0
 20
0.0
 30
0.0
210
0.0
220
0.0
230
1.0
  2
SOLID
 70
     1
 71
     0
 91
        1
 92
        1
 93
        1
 72
     2
 10
3500.7197215952
 20
2571.45508982481
 40
1.500000000000454
 50
0.0
 51
360.0
 73
     1
 97
        0
 75
     0
 76
     1
 98
        1
 10
0.0
 20
0.0
450
        0
451
        0
460
0.0
461
0.0
452
        0
462
0.0
453
        0
470

1001
REVIT
1002
{
1070
     1
1000
757973
1002
}
1002
{
1070
     5
1000
372261
1002
}
1002
{
1070
     2
1000
-2005022
1002
}
  0
LINE
  5
163
330
70
100
AcDbEntity
  8
_ARDEX - WELDTEC TANKING_
100
AcDbLine
 10
3500.7197215952
 20
2571.45508982481
 30
0.0
 11
3466.2945877489
 21
2571.45508982481
 31
0.0
1001
REVIT
1002
{
1070
     1
1000
757973
1002
}
1002
{
1070
     5
1000
372261
1002
}
1002
{
1070
     2
1000
-2005022
1002
}
  0
MTEXT
  5
164
330
70
100
AcDbEntity
  8
_ARDEX - WELDTEC TANKING_
100
AcDbMText
 10
3386.6545877489
 20
2576.781131491476
 30
0.0
 40
4.0
 41
56.75947499999999
 46
0.0
 71
     1
 72
     1
  1
ARDEX SPECIFIED
  7
Swis721 Lt BT
 73
     2
 44
1.0
1001
REVIT
1002
{
1070
     1
1000
757973
1002
}
1002
{
1070
     5
1000
372261
1002
}
1002
{
1070
     2
1000
-2005022
1002
}
  0
MTEXT
  5
165
330
70
100
AcDbEntity
  8
_ARDEX - WELDTEC TANKING_
100
AcDbMText
 10
3386.6545877489
 20
2570.034256491477
 30
0.0
 40
4.0
 41
96.36283749999996
 46
0.0
 71
     1
 72
     1
  1
WATERPROOFING MEMBRANE
  7
Swis721 Lt BT
 73
     2
 44
1.0
1001
REVIT
1002
{
1070
     1
1000
757973
1002
}
1002
{
1070
     5
1000
372261
1002
}
1002
{
1070
     2
1000
-2005022
1002
}
  0
CIRCLE
  5
166
330
70
100
AcDbEntity
  8
_ARDEX - WELDTEC TANKING_
100
AcDbCircle
 10
3519.878548661275
 20
2586.784868762654
 30
0.0
 40
1.499999999999819
1001
REVIT
1002
{
1070
     1
1000
757976
1002
}
1002
{
1070
     5
1000
343954
1002
}
1002
{
1070
     2
1000
-2000300
1002
}
  0
HATCH
  5
167
330
70
100
AcDbEntity
  8
_ARDEX - WELDTEC TANKING_
100
AcDbHatch
 10
0.0
 20
0.0
 30
0.0
210
0.0
220
0.0
230
1.0
  2
SOLID
 70
     1
 71
     0
 91
        1
 92
        1
 93
        1
 72
     2
 10
3519.878548661275
 20
2586.784868762654
 40
1.499999999999819
 50
0.0
 51
360.0
 73
     1
 97
        0
 75
     0
 76
     1
 98
        1
 10
0.0
 20
0.0
450
        0
451
        0
460
0.0
461
0.0
452
        0
462
0.0
453
        0
470

1001
REVIT
1002
{
1070
     1
1000
757976
1002
}
1002
{
1070
     5
1000
343954
1002
}
1002
{
1070
     2
1000
-2000300
1002
}
  0
LINE
  5
168
330
70
100
AcDbEntity
  8
_ARDEX - WELDTEC TANKING_
100
AcDbLine
 10
3494.190362340051
 20
2603.243150096314
 30
0.0
 11
3468.287075955263
 21
2603.243150096314
 31
0.0
1001
REVIT
1002
{
1070
     1
1000
757976
1002
}
1002
{
1070
     5
1000
343954
1002
}
1002
{
1070
     2
1000
-2000300
1002
}
  0
LINE
  5
169
330
70
100
AcDbEntity
  8
_ARDEX - WELDTEC TANKING_
100
AcDbLine
 10
3519.878548661275
 20
2586.784868762654
 30
0.0
 11
3494.190362340051
 21
2603.243150096314
 31
0.0
1001
REVIT
1002
{
1070
     1
1000
757976
1002
}
1002
{
1070
     5
1000
343954
1002
}
1002
{
1070
     2
1000
-2000300
1002
}
  0
MTEXT
  5
16A
330
70
100
AcDbEntity
  8
_ARDEX - WELDTEC TANKING_
100
AcDbMText
 10
3386.75890165357
 20
2608.56919176298
 30
0.0
 40
4.0
 41
84.978875
 46
0.0
 71
     1
 72
     1
  1
5mm MINIMUM RADIUS TO 
  7
Swis721 Lt BT
 73
     2
 44
1.0
1001
REVIT
1002
{
1070
     1
1000
757976
1002
}
1002
{
1070
     5
1000
343954
1002
}
1002
{
1070
     2
1000
-2000300
1002
}
  0
MTEXT
  5
16B
330
70
100
AcDbEntity
  8
_ARDEX - WELDTEC TANKING_
100
AcDbMText
 10
3386.75890165357
 20
2601.822316762981
 30
0.0
 40
4.0
 41
80.00841249999998
 46
0.0
 71
     1
 72
     1
  1
ALL EXTERNAL CORNERS
  7
Swis721 Lt BT
 73
     2
 44
1.0
1001
REVIT
1002
{
1070
     1
1000
757976
1002
}
1002
{
1070
     5
1000
343954
1002
}
1002
{
1070
     2
1000
-2000300
1002
}
  0
CIRCLE
  5
16C
330
70
100
AcDbEntity
  8
_ARDEX - WELDTEC TANKING_
100
AcDbCircle
 10
3590.121512343269
 20
2439.991561513162
 30
0.0
 40
1.500000000000307
1001
REVIT
1002
{
1070
     1
1000
757979
1002
}
1002
{
1070
     5
1000
372253
1002
}
1002
{
1070
     2
1000
-2005022
1002
}
  0
HATCH
  5
16D
330
70
100
AcDbEntity
  8
_ARDEX - WELDTEC TANKING_
100
AcDbHatch
 10
0.0
 20
0.0
 30
0.0
210
0.0
220
0.0
230
1.0
  2
SOLID
 70
     1
 71
     0
 91
        1
 92
        1
 93
        1
 72
     2
 10
3590.121512343269
 20
2439.991561513162
 40
1.500000000000307
 50
0.0
 51
360.0
 73
     1
 97
        0
 75
     0
 76
     1
 98
        1
 10
0.0
 20
0.0
450
        0
451
        0
460
0.0
461
0.0
452
        0
462
0.0
453
        0
470

1001
REVIT
1002
{
1070
     1
1000
757979
1002
}
1002
{
1070
     5
1000
372253
1002
}
1002
{
1070
     2
1000
-2005022
1002
}
  0
LINE
  5
16E
330
70
100
AcDbEntity
  8
_ARDEX - WELDTEC TANKING_
100
AcDbLine
 10
3559.924186218646
 20
2415.562052364693
 30
0.0
 11
3471.0545877489
 21
2415.562052364693
 31
0.0
1001
REVIT
1002
{
1070
     1
1000
757979
1002
}
1002
{
1070
     5
1000
372253
1002
}
1002
{
1070
     2
1000
-2005022
1002
}
  0
LINE
  5
16F
330
70
100
AcDbEntity
  8
_ARDEX - WELDTEC TANKING_
100
AcDbLine
 10
3590.121512343269
 20
2439.991561513162
 30
0.0
 11
3559.924186218646
 21
2415.562052364693
 31
0.0
1001
REVIT
1002
{
1070
     1
1000
757979
1002
}
1002
{
1070
     5
1000
372253
1002
}
1002
{
1070
     2
1000
-2005022
1002
}
  0
MTEXT
  5
170
330
70
100
AcDbEntity
  8
_ARDEX - WELDTEC TANKING_
100
AcDbMText
 10
3389.2945877489
 20
2417.51809403136
 30
0.0
 40
4.0
 41
98.92823749999998
 46
0.0
 71
     1
 72
     1
  1
WATER STOP ARDEX WPM 1955
  7
Swis721 Lt BT
 73
     2
 44
1.0
1001
REVIT
1002
{
1070
     1
1000
757979
1002
}
1002
{
1070
     5
1000
372253
1002
}
1002
{
1070
     2
1000
-2005022
1002
}
  0
DIMENSION
  5
184
330
70
100
AcDbEntity
  8
_ARDEX - WELDTEC TANKING_
100
AcDbDimension
  2
DIMBLOCK1-_HD_ - AS-07 TANKED WALL_ROOF DECK JUNCTION
 10
3546.834894479564
 20
2520.083279763427
 30
0.0
 11
3543.779225778262
 21
2557.17053413027
 31
0.0
 70
    32
  1
MIN 75mm
 71
     5
 42
74.17450873368943
 73
     0
 74
     0
 75
     0
  3
_ARDEX__-_2mm
100
AcDbAlignedDimension
 13
3556.834894479562
 23
2594.257788497115
 33
0.0
 14
3536.834894479562
 24
2520.083279763426
 34
0.0
 50
89.99999999999991
100
AcDbRotatedDimension
1001
ACAD
1000
DSTYLE
1002
{
1070
    49
1040
76.82354942258377
1002
}
1001
REVIT
1002
{
1070
     1
1000
757983
1002
}
1002
{
1070
     5
1000
337368
1002
}
1002
{
1070
     2
1000
-2000260
1002
}
  0
VIEWPORT
  5
193
330
6C
100
AcDbEntity
 67
     1
  8
_ARDEX - WELDTEC TANKING_
100
AcDbViewport
 10
145.3206558342062
 20
98.90468347537433
 30
0.0
 40
283.0000115076765
 41
200.6000046070426
 68
    -1
 69
     2
 12
3652.384083370216
 22
2446.357793104156
 13
0.0
 23
0.0
 14
0.0
 24
0.0
 15
0.0
 25
0.0
 16
0.0
 26
0.0
 36
1.0
 17
0.0
 27
0.0
 37
0.0
 42
0.0
 43
0.0
 44
0.0
 45
401.2000092140852
 50
0.0
 51
0.0
 72
  1000
 90
    32768
  1

281
     0
 71
     1
 74
     1
110
0.0
120
0.0
130
0.0
111
1.0
121
0.0
131
0.0
112
0.0
122
1.0
132
0.0
 79
     0
146
0.0
170
     0
 61
     5
292
     1
282
     1
141
0.0
142
0.0
 63
   250
421
  3355443
  0
VIEWPORT
  5
195
330
6C
100
AcDbEntity
 67
     1
  8
0
100
AcDbViewport
 10
6.0
 20
4.5
 30
0.0
 40
12.0
 41
9.0
 68
    -1
 69
     1
 12
6.0
 22
4.5
 13
0.0
 23
0.0
 14
0.0
 24
0.0
 15
0.0
 25
0.0
 16
0.0
 26
0.0
 36
1.0
 17
0.0
 27
0.0
 37
0.0
 42
50.0
 43
0.0
 44
0.0
 45
12.0
 50
0.0
 51
0.0
 72
   100
 90
    32800
  1

281
     0
 71
     1
 74
     1
110
0.0
120
0.0
130
0.0
111
1.0
121
0.0
131
0.0
112
0.0
122
1.0
132
0.0
 79
     0
146
0.0
170
     0
 61
     5
292
     1
282
     1
141
0.0
142
0.0
 63
   250
421
  3355443
  0
INSERT
  5
228
330
6C
100
AcDbEntity
 67
     1
  8
_ARDEX - WELDTEC TANKING_
 62
   133
420
  7589074
100
AcDbBlockReference
  2
_ARDEX_ Landscape Title block Weldtec Tanking - WPM 5000HD-769546-TANKED WALL-ROOF DECK JUNCTION
 10
0.0
 20
0.0
 30
0.0
1001
REVIT
1002
{
1070
     1
1000
333383
1002
}
1002
{
1070
     5
1000
769546
1002
}
1002
{
1070
     2
1000
-2000280
1002
}
  0
MTEXT
  5
22A
330
6C
100
AcDbEntity
 67
     1
  8
_ARDEX - WELDTEC TANKING_
100
AcDbMText
 10
229.7792895384866
 20
4.159953483062439
 30
0.0
 40
2.0
 41
7.295356249999999
 46
0.0
 71
     1
 72
     1
  1
 1 : 2
  7
Swis721 Lt BT_4
 73
     2
 44
1.0
 90
        3
 63
     9
421
 13158600
 45
1.25
441
        0
1001
REVIT
1002
{
1070
     1
1000
333383
1002
}
1002
{
1070
     5
1000
769546
1002
}
1002
{
1070
     2
1000
-2000280
1002
}
  0
MTEXT
  5
22C
330
6C
100
AcDbEntity
 67
     1
  8
_ARDEX - WELDTEC TANKING_
100
AcDbMText
 10
95.1576274176504
 20
13.00813448458874
 30
0.0
 40
3.0
 41
90.27001249999999
 46
0.0
 71
     1
 72
     1
  1
TANKED WALL-ROOF DECK JUNCTION
  7
Swis721 Lt BT_5
 73
     2
 44
1.0
 90
        3
 63
     9
421
 13158600
 45
1.25
441
        0
1001
REVIT
1002
{
1070
     1
1000
333383
1002
}
1002
{
1070
     5
1000
769546
1002
}
1002
{
1070
     2
1000
-2000280
1002
}
  0
MTEXT
  5
22E
330
6C
100
AcDbEntity
 67
     1
  8
_ARDEX - WELDTEC TANKING_
100
AcDbMText
 10
220.4042895384866
 20
17.16307825028811
 30
0.0
 40
5.0
 41
42.00842499999999
 46
0.0
 71
     1
 72
     1
  1
AS-07(HD)
  7
Arial
 73
     2
 44
1.0
 90
        3
 63
     9
421
 13158600
 45
1.25
441
        0
1001
REVIT
1002
{
1070
     1
1000
333383
1002
}
1002
{
1070
     5
1000
769546
1002
}
1002
{
1070
     2
1000
-2000280
1002
}
  0
MTEXT
  5
22F
330
6C
100
AcDbEntity
 67
     1
  8
_ARDEX - WELDTEC TANKING_
100
AcDbMText
 10
220.4042895384866
 20
8.218762607224899
 30
0.0
 40
2.0
 41
16.5147625
 46
0.0
 71
     1
 72
     1
  1
21.08.2022
  7
Swis721 Lt BT_4
 73
     2
 44
1.0
 90
        3
 63
     9
421
 13158600
 45
1.25
441
        0
1001
REVIT
1002
{
1070
     1
1000
333383
1002
}
1002
{
1070
     5
1000
769546
1002
}
1002
{
1070
     2
1000
-2000280
1002
}
  0
ENDSEC
  0
SECTION
  2
OBJECTS
  0
DICTIONARY
  5
C
330
0
100
AcDbDictionary
281
     1
  3
ACAD_CIP_PREVIOUS_PRODUCT_INFO
350
79
  3
ACAD_COLOR
350
63
  3
ACAD_DETAILVIEWSTYLE
350
6A
  3
ACAD_GROUP
350
D
  3
ACAD_IMAGE_VARS
350
7A
  3
ACAD_LAYOUT
350
62
  3
ACAD_MATERIAL
350
10
  3
ACAD_MLEADERSTYLE
350
66
  3
ACAD_MLINESTYLE
350
5F
  3
ACAD_PLOTSETTINGS
350
61
  3
ACAD_PLOTSTYLENAME
350
E
  3
ACAD_SCALELIST
350
42
  3
ACAD_SECTIONVIEWSTYLE
350
68
  3
ACAD_TABLESTYLE
350
64
  3
ACAD_VISUALSTYLE
350
29
  3
ACDB_RECOMPOSE_DATA
350
23D
  3
AcDbVariableDictionary
350
7B
  3
REVIT_DICTIONARY
350
230
  0
SUN
  5
237
330
57
100
AcDbSun
 90
        1
290
     1
 63
     7
421
 16777215
 40
0.3
291
     1
 91
  2459451
 92
 66088000
292
     0
 70
     1
 71
   128
280
     1
1001
ACAD
1000
AcDbSavedByObjectVersion
1070
     0
  0
DICTIONARY
  5
235
330
70
100
AcDbDictionary
280
     1
281
     1
  3
ACAD_SORTENTS
360
236
  0
XRECORD
  5
79
102
{ACAD_REACTORS
330
C
102
}
330
C
100
AcDbXrecord
280
     1
300
RVT
300
2023
300
RVT2023
  0
DICTIONARY
  5
63
102
{ACAD_REACTORS
330
C
102
}
330
C
100
AcDbDictionary
281
     1
  0
DICTIONARY
  5
6A
102
{ACAD_REACTORS
330
C
102
}
330
C
100
AcDbDictionary
281
     1
  3
Imperial24
350
6B
  0
DICTIONARY
  5
D
102
{ACAD_REACTORS
330
C
102
}
330
C
100
AcDbDictionary
281
     1
  0
RASTERVARIABLES
  5
7A
102
{ACAD_REACTORS
330
C
102
}
330
C
100
AcDbRasterVariables
 90
        0
 70
     0
 71
     1
 72
     1
  0
DICTIONARY
  5
62
102
{ACAD_REACTORS
330
C
102
}
330
C
100
AcDbDictionary
281
     1
  3
Layout1
350
6F
  3
Layout2
350
77
  3
Model
350
73
  0
DICTIONARY
  5
10
102
{ACAD_REACTORS
330
C
102
}
330
C
100
AcDbDictionary
281
     1
  3
ByBlock
350
19
  3
ByLayer
350
11
  3
Global
350
21
  0
DICTIONARY
  5
66
102
{ACAD_REACTORS
330
C
102
}
330
C
100
AcDbDictionary
281
     1
  3
Standard
350
67
  0
DICTIONARY
  5
5F
102
{ACAD_REACTORS
330
C
102
}
330
C
100
AcDbDictionary
281
     1
  3
Standard
350
60
  0
DICTIONARY
  5
61
102
{ACAD_REACTORS
330
C
102
}
330
C
100
AcDbDictionary
281
     1
  0
ACDBDICTIONARYWDFLT
  5
E
102
{ACAD_REACTORS
330
C
102
}
330
C
100
AcDbDictionary
281
     1
  3
Normal
350
F
100
AcDbDictionaryWithDefault
340
F
  0
DICTIONARY
  5
42
102
{ACAD_REACTORS
330
C
102
}
330
C
100
AcDbDictionary
281
     1
  3
A0
350
43
  3
A1
350
44
  3
A2
350
45
  3
A3
350
46
  3
A4
350
47
  3
A5
350
48
  3
A6
350
49
  3
A7
350
4A
  3
A8
350
4B
  3
A9
350
4C
  3
B0
350
4D
  3
B1
350
4E
  3
B2
350
4F
  3
B3
350
50
  3
B4
350
51
  3
B5
350
52
  3
B6
350
53
  0
DICTIONARY
  5
68
102
{ACAD_REACTORS
330
C
102
}
330
C
100
AcDbDictionary
281
     1
  3
Imperial24
350
69
  0
DICTIONARY
  5
64
102
{ACAD_REACTORS
330
C
102
}
330
C
100
AcDbDictionary
281
     1
  3
Standard
350
65
  0
DICTIONARY
  5
29
102
{ACAD_REACTORS
330
C
102
}
330
C
100
AcDbDictionary
281
     1
  3
2dWireframe
350
2F
  3
Basic
350
2E
  3
Brighten
350
35
  3
ColorChange
350
39
  3
Conceptual
350
32
  3
Dim
350
34
  3
EdgeColorOff
350
41
  3
Facepattern
350
38
  3
Flat
350
2A
  3
FlatWithEdges
350
2B
  3
Gouraud
350
2C
  3
GouraudWithEdges
350
2D
  3
Hidden
350
31
  3
JitterOff
350
3F
  3
Linepattern
350
37
  3
OverhangOff
350
40
  3
Realistic
350
33
  3
Shaded
350
3E
  3
Shaded with edges
350
3D
  3
Shades of Gray
350
3A
  3
Sketchy
350
3B
  3
Thicken
350
36
  3
Wireframe
350
30
  3
X-Ray
350
3C
  0
XRECORD
  5
23D
102
{ACAD_REACTORS
330
C
102
}
330
C
100
AcDbXrecord
280
     1
 90
        1
330
65
  0
DICTIONARY
  5
7B
102
{ACAD_REACTORS
330
C
102
}
330
C
100
AcDbDictionary
281
     1
  3
CANNOSCALE
350
80
  3
CMLEADERSTYLE
350
7D
  3
CTABLESTYLE
350
7C
  3
CVIEWDETAILSTYLE
350
7E
  3
CVIEWSECTIONSTYLE
350
7F
  3
XCLIPFRAME
350
81
  0
DICTIONARY
  5
230
102
{ACAD_REACTORS
330
C
102
}
330
C
100
AcDbDictionary
281
     1
  3
DRAWING_TOOL
350
234
  3
REVIT_CATEGORY_MAPPING
350
232
  3
REVIT_SUB_CATEGORY_MAPPING
350
233
  3
REVIT_TYPE_MAPPING
350
231
  0
SORTENTSTABLE
  5
236
102
{ACAD_REACTORS
330
235
102
}
330
235
100
AcDbSortentsTable
330
70
  0
ACDBDETAILVIEWSTYLE
  5
6B
102
{ACAD_XDICTIONARY
360
273
102
}
102
{ACAD_REACTORS
330
6A
102
}
330
6A
100
AcDbModelDocViewStyle
 70
     0
  3
Imperial24
290
     0
100
AcDbDetailViewStyle
 70
     0
 71
     0
 90
        3
 71
     1
340
55
 62
   256
 40
0.24
340
0
 62
   256
 40
0.24
300

 40
0.36
280
     3
 71
     2
340
5D
 90
       25
 62
   256
 71
     3
340
55
 62
   256
 40
0.24
 90
        1
 40
0.75
 90
        1
300
%<\AcVar ViewType \f "%tc1">% %<\AcVar ViewDetailId>%\PSCALE %<\AcVar ViewScale \f "%sn">%
 71
     4
340
5D
 90
       25
 62
   256
340
5D
 90
       25
 62
   256
280
     0
  0
LAYOUT
  5
6F
102
{ACAD_REACTORS
330
62
102
}
330
62
100
AcDbPlotSettings
  1

  2

  4

  6

 40
0.0
 41
0.0
 42
0.0
 43
0.0
 44
0.0
 45
0.0
 46
0.0
 47
0.0
 48
0.0
 49
0.0
140
0.0
141
0.0
142
1.0
143
1.0
 70
   688
 72
     0
 73
     0
 74
     5
  7

 75
    16
147
1.0
 76
     0
 77
     2
 78
   300
148
0.0
149
0.0
100
AcDbLayout
  1
Layout1
 70
     1
 71
     1
 10
0.0
 20
0.0
 11
12.0
 21
9.0
 12
0.0
 22
0.0
 32
0.0
 14
0.0
 24
0.0
 34
0.0
 15
0.0
 25
0.0
 35
0.0
146
0.0
 13
0.0
 23
0.0
 33
0.0
 16
1.0
 26
0.0
 36
0.0
 17
0.0
 27
1.0
 37
0.0
 76
     0
330
6C
  0
LAYOUT
  5
77
102
{ACAD_REACTORS
330
62
102
}
330
62
100
AcDbPlotSettings
  1

  2

  4

  6

 40
0.0
 41
0.0
 42
0.0
 43
0.0
 44
0.0
 45
0.0
 46
0.0
 47
0.0
 48
0.0
 49
0.0
140
0.0
141
0.0
142
1.0
143
1.0
 70
   688
 72
     0
 73
     0
 74
     5
  7

 75
    16
147
1.0
 76
     0
 77
     2
 78
   300
148
0.0
149
0.0
100
AcDbLayout
  1
Layout2
 70
     1
 71
     2
 10
0.0
 20
0.0
 11
12.0
 21
9.0
 12
0.0
 22
0.0
 32
0.0
 14
0.0
 24
0.0
 34
0.0
 15
0.0
 25
0.0
 35
0.0
146
0.0
 13
0.0
 23
0.0
 33
0.0
 16
1.0
 26
0.0
 36
0.0
 17
0.0
 27
1.0
 37
0.0
 76
     0
330
74
  0
LAYOUT
  5
73
102
{ACAD_REACTORS
330
62
102
}
330
62
100
AcDbPlotSettings
  1

  2

  4

  6

 40
0.0
 41
0.0
 42
0.0
 43
0.0
 44
0.0
 45
0.0
 46
0.0
 47
0.0
 48
0.0
 49
0.0
140
0.0
141
0.0
142
1.0
143
1.0
 70
  1712
 72
     0
 73
     0
 74
     0
  7

 75
     0
147
1.0
 76
     0
 77
     2
 78
   300
148
0.0
149
0.0
100
AcDbLayout
  1
Model
 70
     1
 71
     0
 10
0.0
 20
0.0
 11
12.0
 21
9.0
 12
0.0
 22
0.0
 32
0.0
 14
0.0
 24
0.0
 34
0.0
 15
0.0
 25
0.0
 35
0.0
146
0.0
 13
0.0
 23
0.0
 33
0.0
 16
1.0
 26
0.0
 36
0.0
 17
0.0
 27
1.0
 37
0.0
 76
     0
330
70
  0
MATERIAL
  5
19
102
{ACAD_XDICTIONARY
360
1A
102
}
102
{ACAD_REACTORS
330
10
102
}
330
10
100
AcDbMaterial
  1
ByBlock
 72
     0
 43
0.0208333333333333
 43
0.0
 43
0.0
 43
0.0
 43
0.0
 43
0.0208333333333333
 43
0.0
 43
0.0
 43
0.0
 43
0.0
 43
1.0
 43
0.0
 43
0.0
 43
0.0
 43
0.0
 43
1.0
 77
     0
 47
0.0208333333333333
 47
0.0
 47
0.0
 47
0.0
 47
0.0
 47
0.0208333333333333
 47
0.0
 47
0.0
 47
0.0
 47
0.0
 47
1.0
 47
0.0
 47
0.0
 47
0.0
 47
0.0
 47
1.0
171
     0
 49
0.0208333333333333
 49
0.0
 49
0.0
 49
0.0
 49
0.0
 49
0.0208333333333333
 49
0.0
 49
0.0
 49
0.0
 49
0.0
 49
1.0
 49
0.0
 49
0.0
 49
0.0
 49
0.0
 49
1.0
175
     0
142
0.0208333333333333
142
0.0
142
0.0
142
0.0
142
0.0
142
0.0208333333333333
142
0.0
142
0.0
142
0.0
142
0.0
142
1.0
142
0.0
142
0.0
142
0.0
142
0.0
142
1.0
179
     0
144
0.0208333333333333
144
0.0
144
0.0
144
0.0
144
0.0
144
0.0208333333333333
144
0.0
144
0.0
144
0.0
144
0.0
144
1.0
144
0.0
144
0.0
144
0.0
144
0.0
144
1.0
147
0.0208333333333333
147
0.0
147
0.0
147
0.0
147
0.0
147
0.0208333333333333
147
0.0
147
0.0
147
0.0
147
0.0
147
1.0
147
0.0
147
0.0
147
0.0
147
0.0
147
1.0
  0
MATERIAL
  5
11
102
{ACAD_XDICTIONARY
360
12
102
}
102
{ACAD_REACTORS
330
10
102
}
330
10
100
AcDbMaterial
  1
ByLayer
 72
     0
 43
0.0208333333333333
 43
0.0
 43
0.0
 43
0.0
 43
0.0
 43
0.0208333333333333
 43
0.0
 43
0.0
 43
0.0
 43
0.0
 43
1.0
 43
0.0
 43
0.0
 43
0.0
 43
0.0
 43
1.0
 77
     0
 47
0.0208333333333333
 47
0.0
 47
0.0
 47
0.0
 47
0.0
 47
0.0208333333333333
 47
0.0
 47
0.0
 47
0.0
 47
0.0
 47
1.0
 47
0.0
 47
0.0
 47
0.0
 47
0.0
 47
1.0
171
     0
 49
0.0208333333333333
 49
0.0
 49
0.0
 49
0.0
 49
0.0
 49
0.0208333333333333
 49
0.0
 49
0.0
 49
0.0
 49
0.0
 49
1.0
 49
0.0
 49
0.0
 49
0.0
 49
0.0
 49
1.0
175
     0
142
0.0208333333333333
142
0.0
142
0.0
142
0.0
142
0.0
142
0.0208333333333333
142
0.0
142
0.0
142
0.0
142
0.0
142
1.0
142
0.0
142
0.0
142
0.0
142
0.0
142
1.0
179
     0
144
0.0208333333333333
144
0.0
144
0.0
144
0.0
144
0.0
144
0.0208333333333333
144
0.0
144
0.0
144
0.0
144
0.0
144
1.0
144
0.0
144
0.0
144
0.0
144
0.0
144
1.0
147
0.0208333333333333
147
0.0
147
0.0
147
0.0
147
0.0
147
0.0208333333333333
147
0.0
147
0.0
147
0.0
147
0.0
147
1.0
147
0.0
147
0.0
147
0.0
147
0.0
147
1.0
  0
MATERIAL
  5
21
102
{ACAD_XDICTIONARY
360
22
102
}
102
{ACAD_REACTORS
330
10
102
}
330
10
100
AcDbMaterial
  1
Global
 72
     0
 43
0.0208333333333333
 43
0.0
 43
0.0
 43
0.0
 43
0.0
 43
0.0208333333333333
 43
0.0
 43
0.0
 43
0.0
 43
0.0
 43
1.0
 43
0.0
 43
0.0
 43
0.0
 43
0.0
 43
1.0
 77
     0
 47
0.0208333333333333
 47
0.0
 47
0.0
 47
0.0
 47
0.0
 47
0.0208333333333333
 47
0.0
 47
0.0
 47
0.0
 47
0.0
 47
1.0
 47
0.0
 47
0.0
 47
0.0
 47
0.0
 47
1.0
171
     0
 49
0.0208333333333333
 49
0.0
 49
0.0
 49
0.0
 49
0.0
 49
0.0208333333333333
 49
0.0
 49
0.0
 49
0.0
 49
0.0
 49
1.0
 49
0.0
 49
0.0
 49
0.0
 49
0.0
 49
1.0
175
     0
142
0.0208333333333333
142
0.0
142
0.0
142
0.0
142
0.0
142
0.0208333333333333
142
0.0
142
0.0
142
0.0
142
0.0
142
1.0
142
0.0
142
0.0
142
0.0
142
0.0
142
1.0
179
     0
144
0.0208333333333333
144
0.0
144
0.0
144
0.0
144
0.0
144
0.0208333333333333
144
0.0
144
0.0
144
0.0
144
0.0
144
1.0
144
0.0
144
0.0
144
0.0
144
0.0
144
1.0
147
0.0208333333333333
147
0.0
147
0.0
147
0.0
147
0.0
147
0.0208333333333333
147
0.0
147
0.0
147
0.0
147
0.0
147
1.0
147
0.0
147
0.0
147
0.0
147
0.0
147
1.0
  0
MLEADERSTYLE
  5
67
102
{ACAD_XDICTIONARY
360
26F
102
}
102
{ACAD_REACTORS
330
66
102
}
330
66
100
AcDbMLeaderStyle
170
     2
171
     1
172
     0
 90
        2
 40
0.0
 41
0.0
173
     1
 91
-1056964608
340
5B
 92
       -2
290
     1
 42
0.09
291
     1
 43
0.36
  3
Standard
 44
0.18
300

342
55
174
     1
178
     6
175
     1
176
     0
 93
-1056964608
 45
0.18
292
     0
297
     0
 46
0.18
 94
-1056964608
 47
1.0
 49
1.0
140
1.0
293
     1
141
0.0
294
     1
177
     0
142
1.0
295
     0
296
     0
143
0.125
1001
ACAD_MLEADERVER
1070
     2
  0
MLINESTYLE
  5
60
102
{ACAD_REACTORS
330
5F
102
}
330
5F
100
AcDbMlineStyle
  2
STANDARD
 70
     0
  3

 62
   256
 51
90.0
 52
90.0
 71
     2
 49
0.5
 62
   256
  6
BYLAYER
 49
-0.5
 62
   256
  6
BYLAYER
  0
ACDBPLACEHOLDER
  5
F
102
{ACAD_REACTORS
330
E
102
}
330
E
  0
SCALE
  5
43
102
{ACAD_REACTORS
330
42
102
}
330
42
100
AcDbScale
 70
     0
300
1:1
140
1.0
141
1.0
290
     1
  0
SCALE
  5
44
102
{ACAD_REACTORS
330
42
102
}
330
42
100
AcDbScale
 70
     0
300
1/128" = 1'-0"
140
0.0078125
141
12.0
290
     0
  0
SCALE
  5
45
102
{ACAD_REACTORS
330
42
102
}
330
42
100
AcDbScale
 70
     0
300
1/64" = 1'-0"
140
0.015625
141
12.0
290
     0
  0
SCALE
  5
46
102
{ACAD_REACTORS
330
42
102
}
330
42
100
AcDbScale
 70
     0
300
1/32" = 1'-0"
140
0.03125
141
12.0
290
     0
  0
SCALE
  5
47
102
{ACAD_REACTORS
330
42
102
}
330
42
100
AcDbScale
 70
     0
300
1/16" = 1'-0"
140
0.0625
141
12.0
290
     0
  0
SCALE
  5
48
102
{ACAD_REACTORS
330
42
102
}
330
42
100
AcDbScale
 70
     0
300
3/32" = 1'-0"
140
0.09375
141
12.0
290
     0
  0
SCALE
  5
49
102
{ACAD_REACTORS
330
42
102
}
330
42
100
AcDbScale
 70
     0
300
1/8" = 1'-0"
140
0.125
141
12.0
290
     0
  0
SCALE
  5
4A
102
{ACAD_REACTORS
330
42
102
}
330
42
100
AcDbScale
 70
     0
300
3/16" = 1'-0"
140
0.1875
141
12.0
290
     0
  0
SCALE
  5
4B
102
{ACAD_REACTORS
330
42
102
}
330
42
100
AcDbScale
 70
     0
300
1/4" = 1'-0"
140
0.25
141
12.0
290
     0
  0
SCALE
  5
4C
102
{ACAD_REACTORS
330
42
102
}
330
42
100
AcDbScale
 70
     0
300
3/8" = 1'-0"
140
0.375
141
12.0
290
     0
  0
SCALE
  5
4D
102
{ACAD_REACTORS
330
42
102
}
330
42
100
AcDbScale
 70
     0
300
1/2" = 1'-0"
140
0.5
141
12.0
290
     0
  0
SCALE
  5
4E
102
{ACAD_REACTORS
330
42
102
}
330
42
100
AcDbScale
 70
     0
300
3/4" = 1'-0"
140
0.75
141
12.0
290
     0
  0
SCALE
  5
4F
102
{ACAD_REACTORS
330
42
102
}
330
42
100
AcDbScale
 70
     0
300
1" = 1'-0"
140
1.0
141
12.0
290
     0
  0
SCALE
  5
50
102
{ACAD_REACTORS
330
42
102
}
330
42
100
AcDbScale
 70
     0
300
1-1/2" = 1'-0"
140
1.5
141
12.0
290
     0
  0
SCALE
  5
51
102
{ACAD_REACTORS
330
42
102
}
330
42
100
AcDbScale
 70
     0
300
3" = 1'-0"
140
3.0
141
12.0
290
     0
  0
SCALE
  5
52
102
{ACAD_REACTORS
330
42
102
}
330
42
100
AcDbScale
 70
     0
300
6" = 1'-0"
140
6.0
141
12.0
290
     0
  0
SCALE
  5
53
102
{ACAD_REACTORS
330
42
102
}
330
42
100
AcDbScale
 70
     0
300
1'-0" = 1'-0"
140
12.0
141
12.0
290
     0
  0
ACDBSECTIONVIEWSTYLE
  5
69
102
{ACAD_XDICTIONARY
360
271
102
}
102
{ACAD_REACTORS
330
68
102
}
330
68
100
AcDbModelDocViewStyle
 70
     0
  3
Imperial24
290
     0
100
AcDbSectionViewStyle
 70
     0
 71
     0
 90
       78
 71
     1
340
55
 62
   256
 40
0.24
340
0
340
0
 62
   256
 40
0.24
300
I, O, Q, S, X, Z
 40
0.48
 90
        3
 40
0.18
 90
        1
 71
     2
340
5D
 90
       25
 62
   256
340
5D
 90
       50
 62
   256
 40
0.24
 40
0.0
 40
0.24
 71
     3
340
55
 62
   256
 40
0.24
 90
        1
 40
0.75
 90
        1
300
%<\AcVar ViewType \f "%tc1">% %<\AcVar ViewSectionStartId>%-%<\AcVar ViewSectionEndId>%\PSCALE %<\AcVar ViewScale \f "%sn">%
 71
     4
 62
   256
 62
   257
300
ANSI31
 40
1.0
 90
        0
290
     0
290
     0
 90
        6
 40
0.0
 40
1.570796326794896
 40
0.2617993877991494
 40
1.308996938995747
 40
-0.2617993877991494
 40
1.832595714594046
  0
TABLESTYLE
  5
65
102
{ACAD_XDICTIONARY
360
238
102
}
102
{ACAD_REACTORS
330
64
102
}
330
64
100
AcDbTableStyle
  3
Standard
 70
     0
 71
     0
 40
0.06
 41
0.06
280
     0
281
     0
  7
Standard
140
0.18
170
     2
 62
     0
 63
     7
283
     0
 90
      512
 91
        0
  1

274
    -2
284
     1
 64
     0
275
    -2
285
     1
 65
     0
276
    -2
286
     1
 66
     0
277
    -2
287
     1
 67
     0
278
    -2
288
     1
 68
     0
279
    -2
289
     1
 69
     0
  7
Standard
140
0.25
170
     5
 62
     0
 63
     7
283
     0
 90
      512
 91
        0
  1

274
    -2
284
     1
 64
     0
275
    -2
285
     1
 65
     0
276
    -2
286
     1
 66
     0
277
    -2
287
     1
 67
     0
278
    -2
288
     1
 68
     0
279
    -2
289
     1
 69
     0
  7
Standard
140
0.18
170
     5
 62
     0
 63
     7
283
     0
 90
      512
 91
        0
  1

274
    -2
284
     1
 64
     0
275
    -2
285
     1
 65
     0
276
    -2
286
     1
 66
     0
277
    -2
287
     1
 67
     0
278
    -2
288
     1
 68
     0
279
    -2
289
     1
 69
     0
  0
VISUALSTYLE
  5
2F
102
{ACAD_XDICTIONARY
360
248
102
}
102
{ACAD_REACTORS
330
29
102
}
330
29
100
AcDbVisualStyle
  2
2dWireframe
 70
     4
 71
     0
 72
     2
 73
     0
 90
        0
 40
-0.6
 41
-30.0
 62
     5
 63
     7
421
 16777215
 74
     1
 91
        4
 64
     7
 65
   257
 75
     1
175
     1
 42
1.0
 92
        0
 66
   257
 43
1.0
 76
     1
 77
     6
 78
     2
 67
     7
 79
     5
170
     0
171
     0
290
     0
174
     0
 93
        1
 44
0.0
173
     0
291
     0
 45
0.0
1001
ACAD
1000
AcDbSavedByObjectVersion
1070
     0
  0
VISUALSTYLE
  5
2E
102
{ACAD_XDICTIONARY
360
246
102
}
102
{ACAD_REACTORS
330
29
102
}
330
29
100
AcDbVisualStyle
  2
Basic
 70
     7
 71
     1
 72
     0
 73
     1
 90
        0
 40
-0.6
 41
-30.0
 62
     5
 63
     7
421
 16777215
 74
     0
 91
        4
 64
     7
 65
   257
 75
     1
175
     1
 42
1.0
 92
        8
 66
     7
 43
1.0
 76
     1
 77
     6
 78
     2
 67
     7
 79
     5
170
     0
171
     0
290
     0
174
     0
 93
        1
 44
0.0
173
     0
291
     1
 45
0.0
1001
ACAD
1000
AcDbSavedByObjectVersion
1070
     0
  0
VISUALSTYLE
  5
35
102
{ACAD_XDICTIONARY
360
254
102
}
102
{ACAD_REACTORS
330
29
102
}
330
29
100
AcDbVisualStyle
  2
Brighten
 70
    12
 71
     2
 72
     2
 73
     0
 90
        0
 40
-0.6
 41
-30.0
 62
     5
 63
     7
421
 16777215
 74
     1
 91
        4
 64
     7
 65
   257
 75
     1
175
     1
 42
1.0
 92
        8
 66
     7
 43
1.0
 76
     1
 77
     6
 78
     2
 67
     7
 79
     5
170
     0
171
     0
290
     0
174
     0
 93
        1
 44
50.0
173
     0
291
     1
 45
0.0
1001
ACAD
1000
AcDbSavedByObjectVersion
1070
     0
  0
VISUALSTYLE
  5
39
102
{ACAD_XDICTIONARY
360
25C
102
}
102
{ACAD_REACTORS
330
29
102
}
330
29
100
AcDbVisualStyle
  2
ColorChange
 70
    16
 71
     2
 72
     2
 73
     3
 90
        0
 40
-0.6
 41
-30.0
 62
     5
 63
     8
421
  8421504
 74
     1
 91
        4
 64
     7
 65
   257
 75
     1
175
     1
 42
1.0
 92
        8
 66
     8
424
  8421504
 43
1.0
 76
     1
 77
     6
 78
     2
 67
     7
 79
     5
170
     0
171
     0
290
     0
174
     0
 93
        1
 44
0.0
173
     0
291
     1
 45
0.0
1001
ACAD
1000
AcDbSavedByObjectVersion
1070
     0
  0
VISUALSTYLE
  5
32
102
{ACAD_XDICTIONARY
360
24E
102
}
102
{ACAD_REACTORS
330
29
102
}
330
29
100
AcDbVisualStyle
  2
Conceptual
 70
     9
 71
     3
 72
     2
 73
     0
 90
        0
 40
-0.6
 41
-30.0
 62
     5
 63
     7
421
 16777215
 74
     2
 91
        2
 64
     7
 65
   257
 75
     1
175
     1
 42
179.0
 92
        8
 66
     7
 43
1.0
 76
     1
 77
     6
 78
     2
 67
     7
 79
     3
170
     0
171
     0
290
     0
174
     0
 93
        1
 44
0.0
173
     0
291
     0
 45
0.0
1001
ACAD
1000
AcDbSavedByObjectVersion
1070
     0
  0
VISUALSTYLE
  5
34
102
{ACAD_XDICTIONARY
360
252
102
}
102
{ACAD_REACTORS
330
29
102
}
330
29
100
AcDbVisualStyle
  2
Dim
 70
    11
 71
     2
 72
     2
 73
     0
 90
        0
 40
-0.6
 41
-30.0
 62
     5
 63
     7
421
 16777215
 74
     1
 91
        4
 64
     7
 65
   257
 75
     1
175
     1
 42
1.0
 92
        8
 66
     7
 43
1.0
 76
     1
 77
     6
 78
     2
 67
     7
 79
     5
170
     0
171
     0
290
     0
174
     0
 93
        1
 44
-50.0
173
     0
291
     1
 45
0.0
1001
ACAD
1000
AcDbSavedByObjectVersion
1070
     0
  0
VISUALSTYLE
  5
41
102
{ACAD_XDICTIONARY
360
26C
102
}
102
{ACAD_REACTORS
330
29
102
}
330
29
100
AcDbVisualStyle
  2
EdgeColorOff
 70
    22
 71
     2
 72
     2
 73
     0
 90
        0
 40
-0.6
 41
-30.0
 62
     5
 63
     7
421
 16777215
 74
     1
 91
        4
 64
     7
 65
   257
 75
     1
175
     1
 42
1.0
 92
        8
 66
     7
 43
1.0
 76
     1
 77
     6
 78
     2
 67
     7
 79
     5
170
     0
171
     0
290
     0
174
     0
 93
        1
 44
0.0
173
     0
291
     1
 45
0.0
1001
ACAD
1000
AcDbSavedByObjectVersion
1070
     0
  0
VISUALSTYLE
  5
38
102
{ACAD_XDICTIONARY
360
25A
102
}
102
{ACAD_REACTORS
330
29
102
}
330
29
100
AcDbVisualStyle
  2
Facepattern
 70
    15
 71
     2
 72
     2
 73
     0
 90
        0
 40
-0.6
 41
-30.0
 62
     5
 63
     7
421
 16777215
 74
     1
 91
        4
 64
     7
 65
   257
 75
     1
175
     1
 42
1.0
 92
        8
 66
     7
 43
1.0
 76
     1
 77
     6
 78
     2
 67
     7
 79
     5
170
     0
171
     0
290
     0
174
     0
 93
        1
 44
0.0
173
     0
291
     1
 45
0.0
1001
ACAD
1000
AcDbSavedByObjectVersion
1070
     0
  0
VISUALSTYLE
  5
2A
102
{ACAD_XDICTIONARY
360
23E
102
}
102
{ACAD_REACTORS
330
29
102
}
330
29
100
AcDbVisualStyle
  2
Flat
 70
     0
 71
     2
 72
     1
 73
     1
 90
        2
 40
-0.6
 41
30.0
 62
     5
 63
     7
421
 16777215
 74
     0
 91
        0
 64
     7
 65
   257
 75
     1
175
     1
 42
1.0
 92
        8
 66
     7
 43
1.0
 76
     1
 77
     6
 78
     2
 67
     7
 79
     5
170
     0
171
     0
290
     0
174
     0
 93
       13
 44
0.0
173
     0
291
     1
 45
0.0
1001
ACAD
1000
AcDbSavedByObjectVersion
1070
     0
  0
VISUALSTYLE
  5
2B
102
{ACAD_XDICTIONARY
360
240
102
}
102
{ACAD_REACTORS
330
29
102
}
330
29
100
AcDbVisualStyle
  2
FlatWithEdges
 70
     1
 71
     2
 72
     1
 73
     1
 90
        2
 40
-0.6
 41
30.0
 62
     5
 63
     7
421
 16777215
 74
     1
 91
        0
 64
     7
 65
   257
 75
     1
175
     1
 42
1.0
 92
        0
 66
   257
 43
1.0
 76
     1
 77
     6
 78
     2
 67
     7
 79
     5
170
     0
171
     0
290
     0
174
     0
 93
       13
 44
0.0
173
     0
291
     1
 45
0.0
1001
ACAD
1000
AcDbSavedByObjectVersion
1070
     0
  0
VISUALSTYLE
  5
2C
102
{ACAD_XDICTIONARY
360
242
102
}
102
{ACAD_REACTORS
330
29
102
}
330
29
100
AcDbVisualStyle
  2
Gouraud
 70
     2
 71
     2
 72
     2
 73
     1
 90
        2
 40
-0.6
 41
30.0
 62
     5
 63
     7
421
 16777215
 74
     0
 91
        0
 64
     7
 65
   257
 75
     1
175
     1
 42
1.0
 92
        0
 66
     7
 43
1.0
 76
     1
 77
     6
 78
     2
 67
     7
 79
     5
170
     0
171
     0
290
     0
174
     0
 93
       13
 44
0.0
173
     0
291
     1
 45
0.0
1001
ACAD
1000
AcDbSavedByObjectVersion
1070
     0
  0
VISUALSTYLE
  5
2D
102
{ACAD_XDICTIONARY
360
244
102
}
102
{ACAD_REACTORS
330
29
102
}
330
29
100
AcDbVisualStyle
  2
GouraudWithEdges
 70
     3
 71
     2
 72
     2
 73
     1
 90
        2
 40
-0.6
 41
30.0
 62
     5
 63
     7
421
 16777215
 74
     1
 91
        0
 64
     7
 65
   257
 75
     1
175
     1
 42
1.0
 92
        0
 66
   257
 43
1.0
 76
     1
 77
     6
 78
     2
 67
     7
 79
     5
170
     0
171
     0
290
     0
174
     0
 93
       13
 44
0.0
173
     0
291
     1
 45
0.0
1001
ACAD
1000
AcDbSavedByObjectVersion
1070
     0
  0
VISUALSTYLE
  5
31
102
{ACAD_XDICTIONARY
360
24C
102
}
102
{ACAD_REACTORS
330
29
102
}
330
29
100
AcDbVisualStyle
  2
Hidden
 70
     6
 71
     1
 72
     2
 73
     2
 90
        0
 40
-0.6
 41
-30.0
 62
     5
 63
     7
421
 16777215
 74
     2
 91
        2
 64
     7
 65
   257
 75
     2
175
     1
 42
40.0
 92
        0
 66
   257
 43
1.0
 76
     1
 77
     6
 78
     2
 67
     7
 79
     3
170
     0
171
     0
290
     0
174
     0
 93
        1
 44
0.0
173
     0
291
     0
 45
0.0
1001
ACAD
1000
AcDbSavedByObjectVersion
1070
     0
  0
VISUALSTYLE
  5
3F
102
{ACAD_XDICTIONARY
360
268
102
}
102
{ACAD_REACTORS
330
29
102
}
330
29
100
AcDbVisualStyle
  2
JitterOff
 70
    20
 71
     2
 72
     2
 73
     0
 90
        0
 40
-0.6
 41
-30.0
 62
     5
 63
     7
421
 16777215
 74
     1
 91
        4
 64
     7
 65
   257
 75
     1
175
     1
 42
1.0
 92
       10
 66
     7
 43
1.0
 76
     1
 77
     6
 78
     2
 67
     7
 79
     5
170
     0
171
     0
290
     0
174
     0
 93
        1
 44
0.0
173
     0
291
     1
 45
0.0
1001
ACAD
1000
AcDbSavedByObjectVersion
1070
     0
  0
VISUALSTYLE
  5
37
102
{ACAD_XDICTIONARY
360
258
102
}
102
{ACAD_REACTORS
330
29
102
}
330
29
100
AcDbVisualStyle
  2
Linepattern
 70
    14
 71
     2
 72
     2
 73
     0
 90
        0
 40
-0.6
 41
-30.0
 62
     5
 63
     7
421
 16777215
 74
     1
 91
        4
 64
     7
 65
   257
 75
     7
175
     7
 42
1.0
 92
        8
 66
     7
 43
1.0
 76
     1
 77
     6
 78
     2
 67
     7
 79
     5
170
     0
171
     0
290
     0
174
     0
 93
        1
 44
0.0
173
     0
291
     1
 45
0.0
1001
ACAD
1000
AcDbSavedByObjectVersion
1070
     0
  0
VISUALSTYLE
  5
40
102
{ACAD_XDICTIONARY
360
26A
102
}
102
{ACAD_REACTORS
330
29
102
}
330
29
100
AcDbVisualStyle
  2
OverhangOff
 70
    21
 71
     2
 72
     2
 73
     0
 90
        0
 40
-0.6
 41
-30.0
 62
     5
 63
     7
421
 16777215
 74
     1
 91
        4
 64
     7
 65
   257
 75
     1
175
     1
 42
1.0
 92
        9
 66
     7
 43
1.0
 76
     1
 77
     6
 78
     2
 67
     7
 79
     5
170
     0
171
     0
290
     0
174
     0
 93
        1
 44
0.0
173
     0
291
     1
 45
0.0
1001
ACAD
1000
AcDbSavedByObjectVersion
1070
     0
  0
VISUALSTYLE
  5
33
102
{ACAD_XDICTIONARY
360
250
102
}
102
{ACAD_REACTORS
330
29
102
}
330
29
100
AcDbVisualStyle
  2
Realistic
 70
     8
 71
     2
 72
     3
 73
     0
 90
        2
 40
-0.6
 41
30.0
 62
     5
 63
     7
421
 16777215
 74
     0
 91
        0
 64
     7
 65
   257
 75
     1
175
     1
 42
1.0
 92
        8
 66
   257
 43
1.0
 76
     1
 77
     6
 78
     2
 67
     7
 79
     3
170
     0
171
     0
290
     0
174
     0
 93
       13
 44
0.0
173
     0
291
     0
 45
0.0
1001
ACAD
1000
AcDbSavedByObjectVersion
1070
     0
  0
VISUALSTYLE
  5
3E
102
{ACAD_XDICTIONARY
360
266
102
}
102
{ACAD_REACTORS
330
29
102
}
330
29
100
AcDbVisualStyle
  2
Shaded
 70
    27
 71
     2
 72
     2
 73
     1
 90
        2
 40
-0.6
 41
30.0
 62
     5
 63
     7
421
 16777215
 74
     0
 91
        4
 64
     7
 65
   257
 75
     1
175
     1
 42
1.0
 92
        8
 66
   257
 43
1.0
 76
     1
 77
     6
 78
     2
 67
     8
425
  7895160
 79
     3
170
     0
171
     0
290
     0
174
     0
 93
        5
 44
0.0
173
     0
291
     0
 45
0.0
1001
ACAD
1000
AcDbSavedByObjectVersion
1070
     0
  0
VISUALSTYLE
  5
3D
102
{ACAD_XDICTIONARY
360
264
102
}
102
{ACAD_REACTORS
330
29
102
}
330
29
100
AcDbVisualStyle
  2
Shaded with edges
 70
    26
 71
     2
 72
     2
 73
     1
 90
        2
 40
-0.6
 41
30.0
 62
     5
 63
     7
421
 16777215
 74
     1
 91
        2
 64
     7
 65
   257
 75
     2
175
     1
 42
1.0
 92
        8
 66
   257
 43
1.0
 76
     1
 77
     6
 78
     2
 67
     7
 79
     3
170
     0
171
     0
290
     0
174
     0
 93
        5
 44
0.0
173
     0
291
     0
 45
0.0
1001
ACAD
1000
AcDbSavedByObjectVersion
1070
     0
  0
VISUALSTYLE
  5
3A
102
{ACAD_XDICTIONARY
360
25E
102
}
102
{ACAD_REACTORS
330
29
102
}
330
29
100
AcDbVisualStyle
  2
Shades of Gray
 70
    23
 71
     2
 72
     2
 73
     3
 90
        0
 40
-0.6
 41
-30.0
 62
     5
 63
     7
421
 16777215
 74
     2
 91
        2
 64
     7
 65
     7
 75
     1
175
     1
 42
40.0
 92
        8
 66
     7
 43
1.0
 76
     1
 77
     6
 78
     2
 67
     7
 79
     3
170
     0
171
     0
290
     0
174
     0
 93
        1
 44
0.0
173
     0
291
     0
 45
0.0
1001
ACAD
1000
AcDbSavedByObjectVersion
1070
     0
  0
VISUALSTYLE
  5
3B
102
{ACAD_XDICTIONARY
360
260
102
}
102
{ACAD_REACTORS
330
29
102
}
330
29
100
AcDbVisualStyle
  2
Sketchy
 70
    24
 71
     1
 72
     2
 73
     2
 90
        0
 40
-0.6
 41
-30.0
 62
     5
 63
     7
421
 16777215
 74
     2
 91
        2
 64
     7
 65
     7
 75
     1
175
     1
 42
40.0
 92
       11
 66
     7
 43
1.0
 76
     1
 77
     6
 78
     2
 67
     7
 79
     6
170
     0
171
     0
290
     0
174
     0
 93
        1
 44
0.0
173
     0
291
     0
 45
0.0
1001
ACAD
1000
AcDbSavedByObjectVersion
1070
     0
  0
VISUALSTYLE
  5
36
102
{ACAD_XDICTIONARY
360
256
102
}
102
{ACAD_REACTORS
330
29
102
}
330
29
100
AcDbVisualStyle
  2
Thicken
 70
    13
 71
     2
 72
     2
 73
     0
 90
        0
 40
-0.6
 41
-30.0
 62
     5
 63
     7
421
 16777215
 74
     1
 91
        4
 64
     7
 65
   257
 75
     1
175
     1
 42
1.0
 92
       12
 66
     7
 43
1.0
 76
     1
 77
     6
 78
     2
 67
     7
 79
     5
170
     0
171
     0
290
     0
174
     0
 93
        1
 44
0.0
173
     0
291
     1
 45
0.0
1001
ACAD
1000
AcDbSavedByObjectVersion
1070
     0
  0
VISUALSTYLE
  5
30
102
{ACAD_XDICTIONARY
360
24A
102
}
102
{ACAD_REACTORS
330
29
102
}
330
29
100
AcDbVisualStyle
  2
Wireframe
 70
     5
 71
     0
 72
     2
 73
     0
 90
        0
 40
-0.6
 41
-30.0
 62
     5
 63
     7
421
 16777215
 74
     1
 91
        4
 64
     7
 65
   257
 75
     1
175
     1
 42
1.0
 92
        0
 66
   257
 43
1.0
 76
     1
 77
     6
 78
     2
 67
     7
 79
     3
170
     0
171
     0
290
     0
174
     0
 93
        1
 44
0.0
173
     0
291
     0
 45
0.0
1001
ACAD
1000
AcDbSavedByObjectVersion
1070
     0
  0
VISUALSTYLE
  5
3C
102
{ACAD_XDICTIONARY
360
262
102
}
102
{ACAD_REACTORS
330
29
102
}
330
29
100
AcDbVisualStyle
  2
X-Ray
 70
    25
 71
     2
 72
     2
 73
     1
 90
        1
 40
0.5
 41
-30.0
 62
     5
 63
     7
421
 16777215
 74
     1
 91
        0
 64
     7
 65
   257
 75
     1
175
     1
 42
1.0
 92
        8
 66
     7
 43
1.0
 76
     1
 77
     6
 78
     2
 67
     7
 79
     3
170
     0
171
     0
290
     0
174
     0
 93
       13
 44
0.0
173
     0
291
     0
 45
0.0
1001
ACAD
1000
AcDbSavedByObjectVersion
1070
     0
  0
DICTIONARYVAR
  5
80
102
{ACAD_REACTORS
330
7B
102
}
330
7B
100
DictionaryVariables
280
     0
  1
1:1
  0
DICTIONARYVAR
  5
7D
102
{ACAD_REACTORS
330
7B
102
}
330
7B
100
DictionaryVariables
280
     0
  1
STANDARD
  0
DICTIONARYVAR
  5
7C
102
{ACAD_REACTORS
330
7B
102
}
330
7B
100
DictionaryVariables
280
     0
  1
STANDARD
  0
DICTIONARYVAR
  5
7E
102
{ACAD_REACTORS
330
7B
102
}
330
7B
100
DictionaryVariables
280
     0
  1
Imperial24
  0
DICTIONARYVAR
  5
7F
102
{ACAD_REACTORS
330
7B
102
}
330
7B
100
DictionaryVariables
280
     0
  1
Imperial24
  0
DICTIONARYVAR
  5
81
102
{ACAD_REACTORS
330
7B
102
}
330
7B
100
DictionaryVariables
280
     0
  1
2
  0
XRECORD
  5
234
102
{ACAD_REACTORS
330
230
102
}
330
230
100
AcDbXrecord
280
     1
  1
BUILDING_ID
  1
2208A9 RDEX SHELTERSEAL
  1
FLOOR_ID
  1
333378
  0
XRECORD
  5
232
102
{ACAD_REACTORS
330
230
102
}
330
230
100
AcDbXrecord
280
     1
  1
-2000260
  1
Dimensions
  1
-2000280
  1
Title Blocks
  1
-2000300
  1
Text Notes
  1
-2002000
  1
Detail Items
  1
-2005022
  1
Multi-Category Tags
  0
XRECORD
  5
233
102
{ACAD_REACTORS
330
230
102
}
330
230
100
AcDbXrecord
280
     1
  1
335606
  1
(ARDEX) Lines 01
  1
335610
  1
(ARDEX) Lines 03
  1
335612
  1
(ARDEX) Lines 05
  1
352413
  1
(ARDEX) Lines 08 Dashed
  1
437134
  1
0
  1
614484
  1
(ARDEX) Lines 07
  0
XRECORD
  5
231
102
{ACAD_REACTORS
330
230
102
}
330
230
100
AcDbXrecord
280
     1
  1
337368
  1
Linear Dimension Style : (ARDEX) - 2mm
  1
343954
  1
Text : (ARDEX) 2mm Text
  1
372253
  1
(ARDEX) Tag Multi Category : Detail components
  1
372261
  1
(ARDEX) Tag Multi Category : Comments
  1
707735
  1
(ARDEX) Waterstop : (ARDEX) Water Stop
  1
708233
  1
(ARDEX) Lines : WPM 5000HD DPM Membrane
  1
708929
  1
(ARDEX) Lines : WPM240 Primer
  1
713607
  1
(ARDEX) Lines : WPM 5000HD DPM Underflashing Membrane
  1
753775
  1
(ARDEX) Lining - Various : Concrete Wall 150
  1
754219
  1
(ARDEX) Concrete Base 7 : (ARDEX) Concrete Base 7
  1
757505
  1
(ARDEX) Pressure Bar 10801 : (ARDEX) Waterproofing Membrane
  1
769546
  1
(ARDEX) Landscape Title block Weldtec Tanking : WPM 5000HD
  0
DICTIONARY
  5
273
330
6B
100
AcDbDictionary
280
     1
281
     1
  3
ACAD_XREC_ROUNDTRIP
360
274
  0
DICTIONARY
  5
1A
330
19
100
AcDbDictionary
280
     1
281
     1
  3
BUMPTILE
360
1C
  3
DIFFUSETILE
360
1B
  3
OPACITYTILE
360
1F
  3
REFLECTIONTILE
360
1E
  3
REFRACTIONTILE
360
20
  3
SPECULARTILE
360
1D
  0
DICTIONARY
  5
12
330
11
100
AcDbDictionary
280
     1
281
     1
  3
BUMPTILE
360
14
  3
DIFFUSETILE
360
13
  3
OPACITYTILE
360
17
  3
REFLECTIONTILE
360
16
  3
REFRACTIONTILE
360
18
  3
SPECULARTILE
360
15
  0
DICTIONARY
  5
22
330
21
100
AcDbDictionary
280
     1
281
     1
  3
BUMPTILE
360
24
  3
DIFFUSETILE
360
23
  3
OPACITYTILE
360
27
  3
REFLECTIONTILE
360
26
  3
REFRACTIONTILE
360
28
  3
SPECULARTILE
360
25
  0
DICTIONARY
  5
26F
330
67
100
AcDbDictionary
280
     1
281
     1
  3
ACAD_XREC_ROUNDTRIP
360
270
  0
DICTIONARY
  5
271
330
69
100
AcDbDictionary
280
     1
281
     1
  3
ACAD_XREC_ROUNDTRIP
360
272
  0
DICTIONARY
  5
238
330
65
100
AcDbDictionary
280
     1
281
     1
  3
ACAD_ROUNDTRIP_2008_TABLESTYLE_CELLSTYLEMAP
360
239
  0
DICTIONARY
  5
248
330
2F
100
AcDbDictionary
280
     1
281
     1
  3
ACAD_XREC_ROUNDTRIP
360
249
  0
DICTIONARY
  5
246
330
2E
100
AcDbDictionary
280
     1
281
     1
  3
ACAD_XREC_ROUNDTRIP
360
247
  0
DICTIONARY
  5
254
330
35
100
AcDbDictionary
280
     1
281
     1
  3
ACAD_XREC_ROUNDTRIP
360
255
  0
DICTIONARY
  5
25C
330
39
100
AcDbDictionary
280
     1
281
     1
  3
ACAD_XREC_ROUNDTRIP
360
25D
  0
DICTIONARY
  5
24E
330
32
100
AcDbDictionary
280
     1
281
     1
  3
ACAD_XREC_ROUNDTRIP
360
24F
  0
DICTIONARY
  5
252
330
34
100
AcDbDictionary
280
     1
281
     1
  3
ACAD_XREC_ROUNDTRIP
360
253
  0
DICTIONARY
  5
26C
330
41
100
AcDbDictionary
280
     1
281
     1
  3
ACAD_XREC_ROUNDTRIP
360
26D
  0
DICTIONARY
  5
25A
330
38
100
AcDbDictionary
280
     1
281
     1
  3
ACAD_XREC_ROUNDTRIP
360
25B
  0
DICTIONARY
  5
23E
330
2A
100
AcDbDictionary
280
     1
281
     1
  3
ACAD_XREC_ROUNDTRIP
360
23F
  0
DICTIONARY
  5
240
330
2B
100
AcDbDictionary
280
     1
281
     1
  3
ACAD_XREC_ROUNDTRIP
360
241
  0
DICTIONARY
  5
242
330
2C
100
AcDbDictionary
280
     1
281
     1
  3
ACAD_XREC_ROUNDTRIP
360
243
  0
DICTIONARY
  5
244
330
2D
100
AcDbDictionary
280
     1
281
     1
  3
ACAD_XREC_ROUNDTRIP
360
245
  0
DICTIONARY
  5
24C
330
31
100
AcDbDictionary
280
     1
281
     1
  3
ACAD_XREC_ROUNDTRIP
360
24D
  0
DICTIONARY
  5
268
330
3F
100
AcDbDictionary
280
     1
281
     1
  3
ACAD_XREC_ROUNDTRIP
360
269
  0
DICTIONARY
  5
258
330
37
100
AcDbDictionary
280
     1
281
     1
  3
ACAD_XREC_ROUNDTRIP
360
259
  0
DICTIONARY
  5
26A
330
40
100
AcDbDictionary
280
     1
281
     1
  3
ACAD_XREC_ROUNDTRIP
360
26B
  0
DICTIONARY
  5
250
330
33
100
AcDbDictionary
280
     1
281
     1
  3
ACAD_XREC_ROUNDTRIP
360
251
  0
DICTIONARY
  5
266
330
3E
100
AcDbDictionary
280
     1
281
     1
  3
ACAD_XREC_ROUNDTRIP
360
267
  0
DICTIONARY
  5
264
330
3D
100
AcDbDictionary
280
     1
281
     1
  3
ACAD_XREC_ROUNDTRIP
360
265
  0
DICTIONARY
  5
25E
330
3A
100
AcDbDictionary
280
     1
281
     1
  3
ACAD_XREC_ROUNDTRIP
360
25F
  0
DICTIONARY
  5
260
330
3B
100
AcDbDictionary
280
     1
281
     1
  3
ACAD_XREC_ROUNDTRIP
360
261
  0
DICTIONARY
  5
256
330
36
100
AcDbDictionary
280
     1
281
     1
  3
ACAD_XREC_ROUNDTRIP
360
257
  0
DICTIONARY
  5
24A
330
30
100
AcDbDictionary
280
     1
281
     1
  3
ACAD_XREC_ROUNDTRIP
360
24B
  0
DICTIONARY
  5
262
330
3C
100
AcDbDictionary
280
     1
281
     1
  3
ACAD_XREC_ROUNDTRIP
360
263
  0
XRECORD
  5
274
102
{ACAD_REACTORS
330
273
102
}
330
273
100
AcDbXrecord
280
     1
102
DISPLAYNAME
  1
Imperial24
102
FLAGS
 90
        0
  0
XRECORD
  5
1C
102
{ACAD_REACTORS
330
1A
102
}
330
1A
100
AcDbXrecord
280
     1
270
     1
271
     1
  0
XRECORD
  5
1B
102
{ACAD_REACTORS
330
1A
102
}
330
1A
100
AcDbXrecord
280
     1
270
     1
271
     1
  0
XRECORD
  5
1F
102
{ACAD_REACTORS
330
1A
102
}
330
1A
100
AcDbXrecord
280
     1
270
     1
271
     1
  0
XRECORD
  5
1E
102
{ACAD_REACTORS
330
1A
102
}
330
1A
100
AcDbXrecord
280
     1
270
     1
271
     1
  0
XRECORD
  5
20
102
{ACAD_REACTORS
330
1A
102
}
330
1A
100
AcDbXrecord
280
     1
270
     1
271
     1
  0
XRECORD
  5
1D
102
{ACAD_REACTORS
330
1A
102
}
330
1A
100
AcDbXrecord
280
     1
270
     1
271
     1
  0
XRECORD
  5
14
102
{ACAD_REACTORS
330
12
102
}
330
12
100
AcDbXrecord
280
     1
270
     1
271
     1
  0
XRECORD
  5
13
102
{ACAD_REACTORS
330
12
102
}
330
12
100
AcDbXrecord
280
     1
270
     1
271
     1
  0
XRECORD
  5
17
102
{ACAD_REACTORS
330
12
102
}
330
12
100
AcDbXrecord
280
     1
270
     1
271
     1
  0
XRECORD
  5
16
102
{ACAD_REACTORS
330
12
102
}
330
12
100
AcDbXrecord
280
     1
270
     1
271
     1
  0
XRECORD
  5
18
102
{ACAD_REACTORS
330
12
102
}
330
12
100
AcDbXrecord
280
     1
270
     1
271
     1
  0
XRECORD
  5
15
102
{ACAD_REACTORS
330
12
102
}
330
12
100
AcDbXrecord
280
     1
270
     1
271
     1
  0
XRECORD
  5
24
102
{ACAD_REACTORS
330
22
102
}
330
22
100
AcDbXrecord
280
     1
270
     1
271
     1
  0
XRECORD
  5
23
102
{ACAD_REACTORS
330
22
102
}
330
22
100
AcDbXrecord
280
     1
270
     1
271
     1
  0
XRECORD
  5
27
102
{ACAD_REACTORS
330
22
102
}
330
22
100
AcDbXrecord
280
     1
270
     1
271
     1
  0
XRECORD
  5
26
102
{ACAD_REACTORS
330
22
102
}
330
22
100
AcDbXrecord
280
     1
270
     1
271
     1
  0
XRECORD
  5
28
102
{ACAD_REACTORS
330
22
102
}
330
22
100
AcDbXrecord
280
     1
270
     1
271
     1
  0
XRECORD
  5
25
102
{ACAD_REACTORS
330
22
102
}
330
22
100
AcDbXrecord
280
     1
270
     1
271
     1
  0
XRECORD
  5
270
102
{ACAD_REACTORS
330
26F
102
}
330
26F
100
AcDbXrecord
280
     1
102
ACAD_ROUNDTRIP_2012_MLEADER_STYLE
298
     1
  0
XRECORD
  5
272
102
{ACAD_REACTORS
330
271
102
}
330
271
100
AcDbXrecord
280
     1
102
DISPLAYNAME
  1
Imperial24
102
FLAGS
 90
        0
  0
CELLSTYLEMAP
  5
239
102
{ACAD_REACTORS
330
238
102
}
330
238
100
AcDbCellStyleMap
 90
        3
300
CELLSTYLE
  1
TABLEFORMAT_BEGIN
 90
        5
170
     1
 91
        0
 92
    32768
 62
   257
 93
        1
300
CONTENTFORMAT
  1
CONTENTFORMAT_BEGIN
 90
        0
 91
        0
 92
      512
 93
        0
300

 40
0.0
140
1.0
 94
        5
 62
     0
340
55
144
0.25
309
CONTENTFORMAT_END
171
     0
 94
        0
309
TABLEFORMAT_END
  1
CELLSTYLE_BEGIN
 90
        1
 91
        1
300
_TITLE
309
CELLSTYLE_END
300
CELLSTYLE
  1
TABLEFORMAT_BEGIN
 90
        5
170
     1
 91
        0
 92
        0
 62
   257
 93
        1
300
CONTENTFORMAT
  1
CONTENTFORMAT_BEGIN
 90
        0
 91
        0
 92
      512
 93
        0
300

 40
0.0
140
1.0
 94
        5
 62
     0
340
55
144
0.18
309
CONTENTFORMAT_END
171
     0
 94
        0
309
TABLEFORMAT_END
  1
CELLSTYLE_BEGIN
 90
        2
 91
        1
300
_HEADER
309
CELLSTYLE_END
300
CELLSTYLE
  1
TABLEFORMAT_BEGIN
 90
        5
170
     1
 91
        0
 92
        0
 62
   257
 93
        1
300
CONTENTFORMAT
  1
CONTENTFORMAT_BEGIN
 90
        0
 91
        0
 92
      512
 93
        0
300

 40
0.0
140
1.0
 94
        2
 62
     0
340
55
144
0.18
309
CONTENTFORMAT_END
171
     0
 94
        0
309
TABLEFORMAT_END
  1
CELLSTYLE_BEGIN
 90
        3
 91
        2
300
_DATA
309
CELLSTYLE_END
  0
XRECORD
  5
249
102
{ACAD_REACTORS
330
248
102
}
330
248
100
AcDbXrecord
280
     1
102
RTVSPost2010Prop28
280
     1
102
RTVSPost2010PropOp28
 70
     1
102
RTVSPost2010Prop29
280
     1
102
RTVSPost2010PropOp29
 70
     1
102
RTVSPost2010Prop30
280
     0
102
RTVSPost2010PropOp30
 70
     1
102
RTVSPost2010Prop31
280
     0
102
RTVSPost2010PropOp31
 70
     1
102
RTVSPost2010Prop32
280
     0
102
RTVSPost2010PropOp32
 70
     1
102
RTVSPost2010Prop33
280
     0
102
RTVSPost2010PropOp33
 70
     1
102
RTVSPost2010Prop34
280
     0
102
RTVSPost2010PropOp34
 70
     1
102
RTVSPost2010Prop35
280
     0
102
RTVSPost2010PropOp35
 70
     1
102
RTVSPost2010Prop36
280
     0
102
RTVSPost2010PropOp36
 70
     1
102
RTVSPost2010Prop37
 90
       50
102
RTVSPost2010PropOp37
 70
     1
102
RTVSPost2010Prop38
140
0.0
102
RTVSPost2010PropOp38
 70
     1
102
RTVSPost2010Prop39
140
1.0
102
RTVSPost2010PropOp39
 70
     1
102
RTVSPost2010Prop40
 90
        0
102
RTVSPost2010PropOp40
 70
     1
102
RTVSPost2010Prop41ColorIndex
 90
       18
102
RTVSPost2010Prop41ColorRGB
 90
        0
102
RTVSPost2010PropOp41
 70
     1
102
RTVSPost2010Prop42
 90
       50
102
RTVSPost2010PropOp42
 70
     1
102
RTVSPost2010Prop43
 90
        3
102
RTVSPost2010PropOp43
 70
     1
102
RTVSPost2010Prop44ColorIndex
 90
        5
102
RTVSPost2010Prop44ColorRGB
 90
      255
102
RTVSPost2010PropOp44
 70
     1
102
RTVSPost2010Prop45
280
     0
102
RTVSPost2010PropOp45
 70
     1
102
RTVSPost2010Prop46
 90
       50
102
RTVSPost2010PropOp46
 70
     1
102
RTVSPost2010Prop47
 90
       50
102
RTVSPost2010PropOp47
 70
     1
102
RTVSPost2010Prop48
 90
       50
102
RTVSPost2010PropOp48
 70
     1
102
RTVSPost2010Prop49
280
     0
102
RTVSPost2010PropOp49
 70
     1
102
RTVSPost2010Prop50
 90
       50
102
RTVSPost2010PropOp50
 70
     1
102
RTVSPost2010Prop51ColorIndex
 90
      256
102
RTVSPost2010Prop51ColorRGB
 90
-16777216
102
RTVSPost2010PropOp51
 70
     0
102
RTVSPost2010Prop52
140
1.0
102
RTVSPost2010PropOp52
 70
     0
102
RTVSPost2010Prop53
 90
        2
102
RTVSPost2010PropOp53
 70
     1
102
RTVSPost2010Prop54
  1
strokes_ogs.tif
102
RTVSPost2010PropOp54
 70
     1
102
RTVSPost2010Prop55
280
     0
102
RTVSPost2010PropOp55
 70
     1
102
RTVSPost2010Prop56
140
1.0
102
RTVSPost2010PropOp56
 70
     1
102
RTVSPost2010Prop57
140
1.0
102
RTVSPost2010PropOp57
 70
     1
102
RTVSPropertyOp0
 70
     1
102
RTVSPropertyOp1
 70
     1
102
RTVSPropertyOp2
 70
     1
102
RTVSPropertyOp3
 70
     1
102
RTVSPropertyOp4
 70
     1
102
RTVSPropertyOp5
 70
     1
102
RTVSPropertyOp6
 70
     1
102
RTVSPropertyOp7
 70
     1
102
RTVSPropertyOp8
 70
     1
102
RTVSPropertyOp9
 70
     1
102
RTVSPropertyOp10
 70
     1
102
RTVSPropertyOp11
 70
     1
102
RTVSPropertyOp12
 70
     1
102
RTVSPropertyOp13
 70
     1
102
RTVSPropertyOp14
 70
     1
102
RTVSPropertyOp15
 70
     1
102
RTVSPropertyOp16
 70
     1
102
RTVSPropertyOp17
 70
     1
102
RTVSPropertyOp18
 70
     1
102
RTVSPropertyOp19
 70
     1
102
RTVSPropertyOp20
 70
     1
102
RTVSPropertyOp21
 70
     1
102
RTVSPropertyOp22
 70
     1
102
RTVSPropertyOp23
 70
     1
102
RTVSPropertyOp24
 70
     1
102
RTVSPropertyOp25
 70
     1
102
RTVSPropertyOp26
 70
     1
102
RTVSPropertyOp27
 70
     1
102
RTVSPropertyOp28
 70
     1
102
RTVSPropertyOp29
 70
     1
102
RTVSPropertyOp30
 70
     1
102
RTVSPropertyOp31
 70
     1
102
RTVSPropertyOp32
 70
     1
102
RTVSPropertyOp33
 70
     1
102
RTVSPropertyOp34
 70
     1
102
RTVSPropertyOp35
 70
     1
102
RTVSPropertyOp36
 70
     1
102
RTVSPropertyOp37
 70
     1
102
RTVSPropertyOp38
 70
     1
102
RTVSPropertyOp39
 70
     1
102
RTVSPropertyOp40
 70
     1
102
RTVSPropertyOp41
 70
     1
102
RTVSPropertyOp42
 70
     1
102
RTVSPropertyOp43
 70
     1
102
RTVSPropertyOp44
 70
     1
102
RTVSPropertyOp45
 70
     1
102
RTVSPropertyOp46
 70
     1
102
RTVSPropertyOp47
 70
     1
102
RTVSPropertyOp48
 70
     1
102
RTVSPropertyOp49
 70
     1
102
RTVSPropertyOp50
 70
     1
102
RTVSPropertyOp51
 70
     0
102
RTVSPropertyOp52
 70
     0
102
RTVSPropertyOp53
 70
     1
102
RTVSPropertyOp54
 70
     1
102
RTVSPropertyOp55
 70
     1
102
RTVSPropertyOp56
 70
     1
102
RTVSPropertyOp57
 70
     1
102
RTVSPropertyOp58
 70
     1
102
RTVSPropertyOp59
 70
     1
102
RTVSPropertyOp60
 70
     1
102
RTVSPropertyOp61
 70
     1
102
RTVSPropertyOp62
 70
     1
  0
XRECORD
  5
247
102
{ACAD_REACTORS
330
246
102
}
330
246
100
AcDbXrecord
280
     1
102
RTVSPost2010Prop28
280
     0
102
RTVSPost2010PropOp28
 70
     1
102
RTVSPost2010Prop29
280
     1
102
RTVSPost2010PropOp29
 70
     1
102
RTVSPost2010Prop30
280
     1
102
RTVSPost2010PropOp30
 70
     1
102
RTVSPost2010Prop31
280
     0
102
RTVSPost2010PropOp31
 70
     1
102
RTVSPost2010Prop32
280
     0
102
RTVSPost2010PropOp32
 70
     1
102
RTVSPost2010Prop33
280
     0
102
RTVSPost2010PropOp33
 70
     1
102
RTVSPost2010Prop34
280
     0
102
RTVSPost2010PropOp34
 70
     1
102
RTVSPost2010Prop35
280
     0
102
RTVSPost2010PropOp35
 70
     1
102
RTVSPost2010Prop36
280
     0
102
RTVSPost2010PropOp36
 70
     1
102
RTVSPost2010Prop37
 90
       50
102
RTVSPost2010PropOp37
 70
     1
102
RTVSPost2010Prop38
140
0.0
102
RTVSPost2010PropOp38
 70
     1
102
RTVSPost2010Prop39
140
1.0
102
RTVSPost2010PropOp39
 70
     1
102
RTVSPost2010Prop40
 90
        0
102
RTVSPost2010PropOp40
 70
     1
102
RTVSPost2010Prop41ColorIndex
 90
       18
102
RTVSPost2010Prop41ColorRGB
 90
        0
102
RTVSPost2010PropOp41
 70
     1
102
RTVSPost2010Prop42
 90
       50
102
RTVSPost2010PropOp42
 70
     1
102
RTVSPost2010Prop43
 90
        3
102
RTVSPost2010PropOp43
 70
     1
102
RTVSPost2010Prop44ColorIndex
 90
        5
102
RTVSPost2010Prop44ColorRGB
 90
      255
102
RTVSPost2010PropOp44
 70
     1
102
RTVSPost2010Prop45
280
     0
102
RTVSPost2010PropOp45
 70
     1
102
RTVSPost2010Prop46
 90
       50
102
RTVSPost2010PropOp46
 70
     1
102
RTVSPost2010Prop47
 90
       50
102
RTVSPost2010PropOp47
 70
     1
102
RTVSPost2010Prop48
 90
       50
102
RTVSPost2010PropOp48
 70
     1
102
RTVSPost2010Prop49
280
     0
102
RTVSPost2010PropOp49
 70
     1
102
RTVSPost2010Prop50
 90
       50
102
RTVSPost2010PropOp50
 70
     1
102
RTVSPost2010Prop51ColorIndex
 90
      256
102
RTVSPost2010Prop51ColorRGB
 90
-16777216
102
RTVSPost2010PropOp51
 70
     0
102
RTVSPost2010Prop52
140
1.0
102
RTVSPost2010PropOp52
 70
     0
102
RTVSPost2010Prop53
 90
        2
102
RTVSPost2010PropOp53
 70
     1
102
RTVSPost2010Prop54
  1
strokes_ogs.tif
102
RTVSPost2010PropOp54
 70
     1
102
RTVSPost2010Prop55
280
     0
102
RTVSPost2010PropOp55
 70
     1
102
RTVSPost2010Prop56
140
1.0
102
RTVSPost2010PropOp56
 70
     1
102
RTVSPost2010Prop57
140
1.0
102
RTVSPost2010PropOp57
 70
     1
102
RTVSPropertyOp0
 70
     1
102
RTVSPropertyOp1
 70
     1
102
RTVSPropertyOp2
 70
     1
102
RTVSPropertyOp3
 70
     1
102
RTVSPropertyOp4
 70
     1
102
RTVSPropertyOp5
 70
     1
102
RTVSPropertyOp6
 70
     1
102
RTVSPropertyOp7
 70
     1
102
RTVSPropertyOp8
 70
     1
102
RTVSPropertyOp9
 70
     1
102
RTVSPropertyOp10
 70
     1
102
RTVSPropertyOp11
 70
     1
102
RTVSPropertyOp12
 70
     1
102
RTVSPropertyOp13
 70
     1
102
RTVSPropertyOp14
 70
     1
102
RTVSPropertyOp15
 70
     1
102
RTVSPropertyOp16
 70
     1
102
RTVSPropertyOp17
 70
     1
102
RTVSPropertyOp18
 70
     1
102
RTVSPropertyOp19
 70
     1
102
RTVSPropertyOp20
 70
     1
102
RTVSPropertyOp21
 70
     1
102
RTVSPropertyOp22
 70
     1
102
RTVSPropertyOp23
 70
     1
102
RTVSPropertyOp24
 70
     1
102
RTVSPropertyOp25
 70
     1
102
RTVSPropertyOp26
 70
     1
102
RTVSPropertyOp27
 70
     1
102
RTVSPropertyOp28
 70
     1
102
RTVSPropertyOp29
 70
     1
102
RTVSPropertyOp30
 70
     1
102
RTVSPropertyOp31
 70
     1
102
RTVSPropertyOp32
 70
     1
102
RTVSPropertyOp33
 70
     1
102
RTVSPropertyOp34
 70
     1
102
RTVSPropertyOp35
 70
     1
102
RTVSPropertyOp36
 70
     1
102
RTVSPropertyOp37
 70
     1
102
RTVSPropertyOp38
 70
     1
102
RTVSPropertyOp39
 70
     1
102
RTVSPropertyOp40
 70
     1
102
RTVSPropertyOp41
 70
     1
102
RTVSPropertyOp42
 70
     1
102
RTVSPropertyOp43
 70
     1
102
RTVSPropertyOp44
 70
     1
102
RTVSPropertyOp45
 70
     1
102
RTVSPropertyOp46
 70
     1
102
RTVSPropertyOp47
 70
     1
102
RTVSPropertyOp48
 70
     1
102
RTVSPropertyOp49
 70
     1
102
RTVSPropertyOp50
 70
     1
102
RTVSPropertyOp51
 70
     0
102
RTVSPropertyOp52
 70
     0
102
RTVSPropertyOp53
 70
     1
102
RTVSPropertyOp54
 70
     1
102
RTVSPropertyOp55
 70
     1
102
RTVSPropertyOp56
 70
     1
102
RTVSPropertyOp57
 70
     1
102
RTVSPropertyOp58
 70
     1
102
RTVSPropertyOp59
 70
     1
102
RTVSPropertyOp60
 70
     1
102
RTVSPropertyOp61
 70
     1
102
RTVSPropertyOp62
 70
     1
  0
XRECORD
  5
255
102
{ACAD_REACTORS
330
254
102
}
330
254
100
AcDbXrecord
280
     1
102
RTVSPost2010Prop28
280
     0
102
RTVSPost2010PropOp28
 70
     1
102
RTVSPost2010Prop29
280
     1
102
RTVSPost2010PropOp29
 70
     1
102
RTVSPost2010Prop30
280
     1
102
RTVSPost2010PropOp30
 70
     1
102
RTVSPost2010Prop31
280
     0
102
RTVSPost2010PropOp31
 70
     1
102
RTVSPost2010Prop32
280
     0
102
RTVSPost2010PropOp32
 70
     1
102
RTVSPost2010Prop33
280
     0
102
RTVSPost2010PropOp33
 70
     1
102
RTVSPost2010Prop34
280
     0
102
RTVSPost2010PropOp34
 70
     1
102
RTVSPost2010Prop35
280
     0
102
RTVSPost2010PropOp35
 70
     1
102
RTVSPost2010Prop36
280
     0
102
RTVSPost2010PropOp36
 70
     1
102
RTVSPost2010Prop37
 90
       50
102
RTVSPost2010PropOp37
 70
     1
102
RTVSPost2010Prop38
140
0.0
102
RTVSPost2010PropOp38
 70
     1
102
RTVSPost2010Prop39
140
1.0
102
RTVSPost2010PropOp39
 70
     1
102
RTVSPost2010Prop40
 90
        0
102
RTVSPost2010PropOp40
 70
     1
102
RTVSPost2010Prop41ColorIndex
 90
       18
102
RTVSPost2010Prop41ColorRGB
 90
        0
102
RTVSPost2010PropOp41
 70
     1
102
RTVSPost2010Prop42
 90
       50
102
RTVSPost2010PropOp42
 70
     1
102
RTVSPost2010Prop43
 90
        3
102
RTVSPost2010PropOp43
 70
     1
102
RTVSPost2010Prop44ColorIndex
 90
        5
102
RTVSPost2010Prop44ColorRGB
 90
      255
102
RTVSPost2010PropOp44
 70
     1
102
RTVSPost2010Prop45
280
     0
102
RTVSPost2010PropOp45
 70
     1
102
RTVSPost2010Prop46
 90
       50
102
RTVSPost2010PropOp46
 70
     1
102
RTVSPost2010Prop47
 90
       50
102
RTVSPost2010PropOp47
 70
     1
102
RTVSPost2010Prop48
 90
       50
102
RTVSPost2010PropOp48
 70
     1
102
RTVSPost2010Prop49
280
     0
102
RTVSPost2010PropOp49
 70
     1
102
RTVSPost2010Prop50
 90
       50
102
RTVSPost2010PropOp50
 70
     1
102
RTVSPost2010Prop51ColorIndex
 90
      256
102
RTVSPost2010Prop51ColorRGB
 90
-16777216
102
RTVSPost2010PropOp51
 70
     0
102
RTVSPost2010Prop52
140
1.0
102
RTVSPost2010PropOp52
 70
     0
102
RTVSPost2010Prop53
 90
        2
102
RTVSPost2010PropOp53
 70
     1
102
RTVSPost2010Prop54
  1
strokes_ogs.tif
102
RTVSPost2010PropOp54
 70
     1
102
RTVSPost2010Prop55
280
     0
102
RTVSPost2010PropOp55
 70
     1
102
RTVSPost2010Prop56
140
1.0
102
RTVSPost2010PropOp56
 70
     1
102
RTVSPost2010Prop57
140
1.0
102
RTVSPost2010PropOp57
 70
     1
102
RTVSPropertyOp0
 70
     1
102
RTVSPropertyOp1
 70
     1
102
RTVSPropertyOp2
 70
     1
102
RTVSPropertyOp3
 70
     1
102
RTVSPropertyOp4
 70
     1
102
RTVSPropertyOp5
 70
     1
102
RTVSPropertyOp6
 70
     1
102
RTVSPropertyOp7
 70
     1
102
RTVSPropertyOp8
 70
     1
102
RTVSPropertyOp9
 70
     1
102
RTVSPropertyOp10
 70
     1
102
RTVSPropertyOp11
 70
     1
102
RTVSPropertyOp12
 70
     1
102
RTVSPropertyOp13
 70
     1
102
RTVSPropertyOp14
 70
     1
102
RTVSPropertyOp15
 70
     1
102
RTVSPropertyOp16
 70
     1
102
RTVSPropertyOp17
 70
     1
102
RTVSPropertyOp18
 70
     1
102
RTVSPropertyOp19
 70
     1
102
RTVSPropertyOp20
 70
     1
102
RTVSPropertyOp21
 70
     1
102
RTVSPropertyOp22
 70
     1
102
RTVSPropertyOp23
 70
     1
102
RTVSPropertyOp24
 70
     1
102
RTVSPropertyOp25
 70
     1
102
RTVSPropertyOp26
 70
     1
102
RTVSPropertyOp27
 70
     1
102
RTVSPropertyOp28
 70
     1
102
RTVSPropertyOp29
 70
     1
102
RTVSPropertyOp30
 70
     1
102
RTVSPropertyOp31
 70
     1
102
RTVSPropertyOp32
 70
     1
102
RTVSPropertyOp33
 70
     1
102
RTVSPropertyOp34
 70
     1
102
RTVSPropertyOp35
 70
     1
102
RTVSPropertyOp36
 70
     1
102
RTVSPropertyOp37
 70
     1
102
RTVSPropertyOp38
 70
     1
102
RTVSPropertyOp39
 70
     1
102
RTVSPropertyOp40
 70
     1
102
RTVSPropertyOp41
 70
     1
102
RTVSPropertyOp42
 70
     1
102
RTVSPropertyOp43
 70
     1
102
RTVSPropertyOp44
 70
     1
102
RTVSPropertyOp45
 70
     1
102
RTVSPropertyOp46
 70
     1
102
RTVSPropertyOp47
 70
     1
102
RTVSPropertyOp48
 70
     1
102
RTVSPropertyOp49
 70
     1
102
RTVSPropertyOp50
 70
     1
102
RTVSPropertyOp51
 70
     0
102
RTVSPropertyOp52
 70
     0
102
RTVSPropertyOp53
 70
     1
102
RTVSPropertyOp54
 70
     1
102
RTVSPropertyOp55
 70
     1
102
RTVSPropertyOp56
 70
     1
102
RTVSPropertyOp57
 70
     1
102
RTVSPropertyOp58
 70
     1
102
RTVSPropertyOp59
 70
     1
102
RTVSPropertyOp60
 70
     1
102
RTVSPropertyOp61
 70
     1
102
RTVSPropertyOp62
 70
     1
  0
XRECORD
  5
25D
102
{ACAD_REACTORS
330
25C
102
}
330
25C
100
AcDbXrecord
280
     1
102
RTVSPost2010Prop28
280
     0
102
RTVSPost2010PropOp28
 70
     1
102
RTVSPost2010Prop29
280
     1
102
RTVSPost2010PropOp29
 70
     1
102
RTVSPost2010Prop30
280
     1
102
RTVSPost2010PropOp30
 70
     1
102
RTVSPost2010Prop31
280
     0
102
RTVSPost2010PropOp31
 70
     1
102
RTVSPost2010Prop32
280
     0
102
RTVSPost2010PropOp32
 70
     1
102
RTVSPost2010Prop33
280
     0
102
RTVSPost2010PropOp33
 70
     1
102
RTVSPost2010Prop34
280
     0
102
RTVSPost2010PropOp34
 70
     1
102
RTVSPost2010Prop35
280
     0
102
RTVSPost2010PropOp35
 70
     1
102
RTVSPost2010Prop36
280
     0
102
RTVSPost2010PropOp36
 70
     1
102
RTVSPost2010Prop37
 90
       50
102
RTVSPost2010PropOp37
 70
     1
102
RTVSPost2010Prop38
140
0.0
102
RTVSPost2010PropOp38
 70
     1
102
RTVSPost2010Prop39
140
1.0
102
RTVSPost2010PropOp39
 70
     1
102
RTVSPost2010Prop40
 90
        0
102
RTVSPost2010PropOp40
 70
     1
102
RTVSPost2010Prop41ColorIndex
 90
       18
102
RTVSPost2010Prop41ColorRGB
 90
        0
102
RTVSPost2010PropOp41
 70
     1
102
RTVSPost2010Prop42
 90
       50
102
RTVSPost2010PropOp42
 70
     1
102
RTVSPost2010Prop43
 90
        3
102
RTVSPost2010PropOp43
 70
     1
102
RTVSPost2010Prop44ColorIndex
 90
        5
102
RTVSPost2010Prop44ColorRGB
 90
      255
102
RTVSPost2010PropOp44
 70
     1
102
RTVSPost2010Prop45
280
     0
102
RTVSPost2010PropOp45
 70
     1
102
RTVSPost2010Prop46
 90
       50
102
RTVSPost2010PropOp46
 70
     1
102
RTVSPost2010Prop47
 90
       50
102
RTVSPost2010PropOp47
 70
     1
102
RTVSPost2010Prop48
 90
       50
102
RTVSPost2010PropOp48
 70
     1
102
RTVSPost2010Prop49
280
     0
102
RTVSPost2010PropOp49
 70
     1
102
RTVSPost2010Prop50
 90
       50
102
RTVSPost2010PropOp50
 70
     1
102
RTVSPost2010Prop51ColorIndex
 90
      256
102
RTVSPost2010Prop51ColorRGB
 90
-16777216
102
RTVSPost2010PropOp51
 70
     0
102
RTVSPost2010Prop52
140
1.0
102
RTVSPost2010PropOp52
 70
     0
102
RTVSPost2010Prop53
 90
        2
102
RTVSPost2010PropOp53
 70
     1
102
RTVSPost2010Prop54
  1
strokes_ogs.tif
102
RTVSPost2010PropOp54
 70
     1
102
RTVSPost2010Prop55
280
     0
102
RTVSPost2010PropOp55
 70
     1
102
RTVSPost2010Prop56
140
1.0
102
RTVSPost2010PropOp56
 70
     1
102
RTVSPost2010Prop57
140
1.0
102
RTVSPost2010PropOp57
 70
     1
102
RTVSPropertyOp0
 70
     1
102
RTVSPropertyOp1
 70
     1
102
RTVSPropertyOp2
 70
     1
102
RTVSPropertyOp3
 70
     1
102
RTVSPropertyOp4
 70
     1
102
RTVSPropertyOp5
 70
     1
102
RTVSPropertyOp6
 70
     1
102
RTVSPropertyOp7
 70
     1
102
RTVSPropertyOp8
 70
     1
102
RTVSPropertyOp9
 70
     1
102
RTVSPropertyOp10
 70
     1
102
RTVSPropertyOp11
 70
     1
102
RTVSPropertyOp12
 70
     1
102
RTVSPropertyOp13
 70
     1
102
RTVSPropertyOp14
 70
     1
102
RTVSPropertyOp15
 70
     1
102
RTVSPropertyOp16
 70
     1
102
RTVSPropertyOp17
 70
     1
102
RTVSPropertyOp18
 70
     1
102
RTVSPropertyOp19
 70
     1
102
RTVSPropertyOp20
 70
     1
102
RTVSPropertyOp21
 70
     1
102
RTVSPropertyOp22
 70
     1
102
RTVSPropertyOp23
 70
     1
102
RTVSPropertyOp24
 70
     1
102
RTVSPropertyOp25
 70
     1
102
RTVSPropertyOp26
 70
     1
102
RTVSPropertyOp27
 70
     1
102
RTVSPropertyOp28
 70
     1
102
RTVSPropertyOp29
 70
     1
102
RTVSPropertyOp30
 70
     1
102
RTVSPropertyOp31
 70
     1
102
RTVSPropertyOp32
 70
     1
102
RTVSPropertyOp33
 70
     1
102
RTVSPropertyOp34
 70
     1
102
RTVSPropertyOp35
 70
     1
102
RTVSPropertyOp36
 70
     1
102
RTVSPropertyOp37
 70
     1
102
RTVSPropertyOp38
 70
     1
102
RTVSPropertyOp39
 70
     1
102
RTVSPropertyOp40
 70
     1
102
RTVSPropertyOp41
 70
     1
102
RTVSPropertyOp42
 70
     1
102
RTVSPropertyOp43
 70
     1
102
RTVSPropertyOp44
 70
     1
102
RTVSPropertyOp45
 70
     1
102
RTVSPropertyOp46
 70
     1
102
RTVSPropertyOp47
 70
     1
102
RTVSPropertyOp48
 70
     1
102
RTVSPropertyOp49
 70
     1
102
RTVSPropertyOp50
 70
     1
102
RTVSPropertyOp51
 70
     0
102
RTVSPropertyOp52
 70
     0
102
RTVSPropertyOp53
 70
     1
102
RTVSPropertyOp54
 70
     1
102
RTVSPropertyOp55
 70
     1
102
RTVSPropertyOp56
 70
     1
102
RTVSPropertyOp57
 70
     1
102
RTVSPropertyOp58
 70
     1
102
RTVSPropertyOp59
 70
     1
102
RTVSPropertyOp60
 70
     1
102
RTVSPropertyOp61
 70
     1
102
RTVSPropertyOp62
 70
     1
  0
XRECORD
  5
24F
102
{ACAD_REACTORS
330
24E
102
}
330
24E
100
AcDbXrecord
280
     1
102
RTVSPost2010Prop28
280
     0
102
RTVSPost2010PropOp28
 70
     1
102
RTVSPost2010Prop29
280
     1
102
RTVSPost2010PropOp29
 70
     1
102
RTVSPost2010Prop30
280
     1
102
RTVSPost2010PropOp30
 70
     1
102
RTVSPost2010Prop31
280
     0
102
RTVSPost2010PropOp31
 70
     1
102
RTVSPost2010Prop32
280
     0
102
RTVSPost2010PropOp32
 70
     1
102
RTVSPost2010Prop33
280
     0
102
RTVSPost2010PropOp33
 70
     1
102
RTVSPost2010Prop34
280
     0
102
RTVSPost2010PropOp34
 70
     1
102
RTVSPost2010Prop35
280
     0
102
RTVSPost2010PropOp35
 70
     1
102
RTVSPost2010Prop36
280
     0
102
RTVSPost2010PropOp36
 70
     1
102
RTVSPost2010Prop37
 90
       50
102
RTVSPost2010PropOp37
 70
     1
102
RTVSPost2010Prop38
140
0.0
102
RTVSPost2010PropOp38
 70
     1
102
RTVSPost2010Prop39
140
1.0
102
RTVSPost2010PropOp39
 70
     1
102
RTVSPost2010Prop40
 90
        0
102
RTVSPost2010PropOp40
 70
     1
102
RTVSPost2010Prop41ColorIndex
 90
       18
102
RTVSPost2010Prop41ColorRGB
 90
        0
102
RTVSPost2010PropOp41
 70
     1
102
RTVSPost2010Prop42
 90
       50
102
RTVSPost2010PropOp42
 70
     1
102
RTVSPost2010Prop43
 90
        3
102
RTVSPost2010PropOp43
 70
     1
102
RTVSPost2010Prop44ColorIndex
 90
        5
102
RTVSPost2010Prop44ColorRGB
 90
      255
102
RTVSPost2010PropOp44
 70
     1
102
RTVSPost2010Prop45
280
     0
102
RTVSPost2010PropOp45
 70
     1
102
RTVSPost2010Prop46
 90
       50
102
RTVSPost2010PropOp46
 70
     1
102
RTVSPost2010Prop47
 90
       50
102
RTVSPost2010PropOp47
 70
     1
102
RTVSPost2010Prop48
 90
       50
102
RTVSPost2010PropOp48
 70
     1
102
RTVSPost2010Prop49
280
     0
102
RTVSPost2010PropOp49
 70
     1
102
RTVSPost2010Prop50
 90
       50
102
RTVSPost2010PropOp50
 70
     1
102
RTVSPost2010Prop51ColorIndex
 90
      256
102
RTVSPost2010Prop51ColorRGB
 90
-16777216
102
RTVSPost2010PropOp51
 70
     0
102
RTVSPost2010Prop52
140
1.0
102
RTVSPost2010PropOp52
 70
     0
102
RTVSPost2010Prop53
 90
        2
102
RTVSPost2010PropOp53
 70
     1
102
RTVSPost2010Prop54
  1
strokes_ogs.tif
102
RTVSPost2010PropOp54
 70
     1
102
RTVSPost2010Prop55
280
     0
102
RTVSPost2010PropOp55
 70
     1
102
RTVSPost2010Prop56
140
1.0
102
RTVSPost2010PropOp56
 70
     1
102
RTVSPost2010Prop57
140
1.0
102
RTVSPost2010PropOp57
 70
     1
102
RTVSPropertyOp0
 70
     1
102
RTVSPropertyOp1
 70
     1
102
RTVSPropertyOp2
 70
     1
102
RTVSPropertyOp3
 70
     1
102
RTVSPropertyOp4
 70
     1
102
RTVSPropertyOp5
 70
     1
102
RTVSPropertyOp6
 70
     1
102
RTVSPropertyOp7
 70
     1
102
RTVSPropertyOp8
 70
     1
102
RTVSPropertyOp9
 70
     1
102
RTVSPropertyOp10
 70
     1
102
RTVSPropertyOp11
 70
     1
102
RTVSPropertyOp12
 70
     1
102
RTVSPropertyOp13
 70
     1
102
RTVSPropertyOp14
 70
     1
102
RTVSPropertyOp15
 70
     1
102
RTVSPropertyOp16
 70
     1
102
RTVSPropertyOp17
 70
     1
102
RTVSPropertyOp18
 70
     1
102
RTVSPropertyOp19
 70
     1
102
RTVSPropertyOp20
 70
     1
102
RTVSPropertyOp21
 70
     1
102
RTVSPropertyOp22
 70
     1
102
RTVSPropertyOp23
 70
     1
102
RTVSPropertyOp24
 70
     1
102
RTVSPropertyOp25
 70
     1
102
RTVSPropertyOp26
 70
     1
102
RTVSPropertyOp27
 70
     1
102
RTVSPropertyOp28
 70
     1
102
RTVSPropertyOp29
 70
     1
102
RTVSPropertyOp30
 70
     1
102
RTVSPropertyOp31
 70
     1
102
RTVSPropertyOp32
 70
     1
102
RTVSPropertyOp33
 70
     1
102
RTVSPropertyOp34
 70
     1
102
RTVSPropertyOp35
 70
     1
102
RTVSPropertyOp36
 70
     1
102
RTVSPropertyOp37
 70
     1
102
RTVSPropertyOp38
 70
     1
102
RTVSPropertyOp39
 70
     1
102
RTVSPropertyOp40
 70
     1
102
RTVSPropertyOp41
 70
     1
102
RTVSPropertyOp42
 70
     1
102
RTVSPropertyOp43
 70
     1
102
RTVSPropertyOp44
 70
     1
102
RTVSPropertyOp45
 70
     1
102
RTVSPropertyOp46
 70
     1
102
RTVSPropertyOp47
 70
     1
102
RTVSPropertyOp48
 70
     1
102
RTVSPropertyOp49
 70
     1
102
RTVSPropertyOp50
 70
     1
102
RTVSPropertyOp51
 70
     0
102
RTVSPropertyOp52
 70
     0
102
RTVSPropertyOp53
 70
     1
102
RTVSPropertyOp54
 70
     1
102
RTVSPropertyOp55
 70
     1
102
RTVSPropertyOp56
 70
     1
102
RTVSPropertyOp57
 70
     1
102
RTVSPropertyOp58
 70
     1
102
RTVSPropertyOp59
 70
     1
102
RTVSPropertyOp60
 70
     1
102
RTVSPropertyOp61
 70
     1
102
RTVSPropertyOp62
 70
     1
  0
XRECORD
  5
253
102
{ACAD_REACTORS
330
252
102
}
330
252
100
AcDbXrecord
280
     1
102
RTVSPost2010Prop28
280
     0
102
RTVSPost2010PropOp28
 70
     1
102
RTVSPost2010Prop29
280
     1
102
RTVSPost2010PropOp29
 70
     1
102
RTVSPost2010Prop30
280
     1
102
RTVSPost2010PropOp30
 70
     1
102
RTVSPost2010Prop31
280
     0
102
RTVSPost2010PropOp31
 70
     1
102
RTVSPost2010Prop32
280
     0
102
RTVSPost2010PropOp32
 70
     1
102
RTVSPost2010Prop33
280
     0
102
RTVSPost2010PropOp33
 70
     1
102
RTVSPost2010Prop34
280
     0
102
RTVSPost2010PropOp34
 70
     1
102
RTVSPost2010Prop35
280
     0
102
RTVSPost2010PropOp35
 70
     1
102
RTVSPost2010Prop36
280
     0
102
RTVSPost2010PropOp36
 70
     1
102
RTVSPost2010Prop37
 90
       50
102
RTVSPost2010PropOp37
 70
     1
102
RTVSPost2010Prop38
140
0.0
102
RTVSPost2010PropOp38
 70
     1
102
RTVSPost2010Prop39
140
1.0
102
RTVSPost2010PropOp39
 70
     1
102
RTVSPost2010Prop40
 90
        0
102
RTVSPost2010PropOp40
 70
     1
102
RTVSPost2010Prop41ColorIndex
 90
       18
102
RTVSPost2010Prop41ColorRGB
 90
        0
102
RTVSPost2010PropOp41
 70
     1
102
RTVSPost2010Prop42
 90
       50
102
RTVSPost2010PropOp42
 70
     1
102
RTVSPost2010Prop43
 90
        3
102
RTVSPost2010PropOp43
 70
     1
102
RTVSPost2010Prop44ColorIndex
 90
        5
102
RTVSPost2010Prop44ColorRGB
 90
      255
102
RTVSPost2010PropOp44
 70
     1
102
RTVSPost2010Prop45
280
     0
102
RTVSPost2010PropOp45
 70
     1
102
RTVSPost2010Prop46
 90
       50
102
RTVSPost2010PropOp46
 70
     1
102
RTVSPost2010Prop47
 90
       50
102
RTVSPost2010PropOp47
 70
     1
102
RTVSPost2010Prop48
 90
       50
102
RTVSPost2010PropOp48
 70
     1
102
RTVSPost2010Prop49
280
     0
102
RTVSPost2010PropOp49
 70
     1
102
RTVSPost2010Prop50
 90
       50
102
RTVSPost2010PropOp50
 70
     1
102
RTVSPost2010Prop51ColorIndex
 90
      256
102
RTVSPost2010Prop51ColorRGB
 90
-16777216
102
RTVSPost2010PropOp51
 70
     0
102
RTVSPost2010Prop52
140
1.0
102
RTVSPost2010PropOp52
 70
     0
102
RTVSPost2010Prop53
 90
        2
102
RTVSPost2010PropOp53
 70
     1
102
RTVSPost2010Prop54
  1
strokes_ogs.tif
102
RTVSPost2010PropOp54
 70
     1
102
RTVSPost2010Prop55
280
     0
102
RTVSPost2010PropOp55
 70
     1
102
RTVSPost2010Prop56
140
1.0
102
RTVSPost2010PropOp56
 70
     1
102
RTVSPost2010Prop57
140
1.0
102
RTVSPost2010PropOp57
 70
     1
102
RTVSPropertyOp0
 70
     1
102
RTVSPropertyOp1
 70
     1
102
RTVSPropertyOp2
 70
     1
102
RTVSPropertyOp3
 70
     1
102
RTVSPropertyOp4
 70
     1
102
RTVSPropertyOp5
 70
     1
102
RTVSPropertyOp6
 70
     1
102
RTVSPropertyOp7
 70
     1
102
RTVSPropertyOp8
 70
     1
102
RTVSPropertyOp9
 70
     1
102
RTVSPropertyOp10
 70
     1
102
RTVSPropertyOp11
 70
     1
102
RTVSPropertyOp12
 70
     1
102
RTVSPropertyOp13
 70
     1
102
RTVSPropertyOp14
 70
     1
102
RTVSPropertyOp15
 70
     1
102
RTVSPropertyOp16
 70
     1
102
RTVSPropertyOp17
 70
     1
102
RTVSPropertyOp18
 70
     1
102
RTVSPropertyOp19
 70
     1
102
RTVSPropertyOp20
 70
     1
102
RTVSPropertyOp21
 70
     1
102
RTVSPropertyOp22
 70
     1
102
RTVSPropertyOp23
 70
     1
102
RTVSPropertyOp24
 70
     1
102
RTVSPropertyOp25
 70
     1
102
RTVSPropertyOp26
 70
     1
102
RTVSPropertyOp27
 70
     1
102
RTVSPropertyOp28
 70
     1
102
RTVSPropertyOp29
 70
     1
102
RTVSPropertyOp30
 70
     1
102
RTVSPropertyOp31
 70
     1
102
RTVSPropertyOp32
 70
     1
102
RTVSPropertyOp33
 70
     1
102
RTVSPropertyOp34
 70
     1
102
RTVSPropertyOp35
 70
     1
102
RTVSPropertyOp36
 70
     1
102
RTVSPropertyOp37
 70
     1
102
RTVSPropertyOp38
 70
     1
102
RTVSPropertyOp39
 70
     1
102
RTVSPropertyOp40
 70
     1
102
RTVSPropertyOp41
 70
     1
102
RTVSPropertyOp42
 70
     1
102
RTVSPropertyOp43
 70
     1
102
RTVSPropertyOp44
 70
     1
102
RTVSPropertyOp45
 70
     1
102
RTVSPropertyOp46
 70
     1
102
RTVSPropertyOp47
 70
     1
102
RTVSPropertyOp48
 70
     1
102
RTVSPropertyOp49
 70
     1
102
RTVSPropertyOp50
 70
     1
102
RTVSPropertyOp51
 70
     0
102
RTVSPropertyOp52
 70
     0
102
RTVSPropertyOp53
 70
     1
102
RTVSPropertyOp54
 70
     1
102
RTVSPropertyOp55
 70
     1
102
RTVSPropertyOp56
 70
     1
102
RTVSPropertyOp57
 70
     1
102
RTVSPropertyOp58
 70
     1
102
RTVSPropertyOp59
 70
     1
102
RTVSPropertyOp60
 70
     1
102
RTVSPropertyOp61
 70
     1
102
RTVSPropertyOp62
 70
     1
  0
XRECORD
  5
26D
102
{ACAD_REACTORS
330
26C
102
}
330
26C
100
AcDbXrecord
280
     1
102
RTVSPost2010Prop28
280
     0
102
RTVSPost2010PropOp28
 70
     0
102
RTVSPost2010Prop29
280
     1
102
RTVSPost2010PropOp29
 70
     0
102
RTVSPost2010Prop30
280
     1
102
RTVSPost2010PropOp30
 70
     0
102
RTVSPost2010Prop31
280
     0
102
RTVSPost2010PropOp31
 70
     0
102
RTVSPost2010Prop32
280
     0
102
RTVSPost2010PropOp32
 70
     0
102
RTVSPost2010Prop33
280
     0
102
RTVSPost2010PropOp33
 70
     0
102
RTVSPost2010Prop34
280
     0
102
RTVSPost2010PropOp34
 70
     0
102
RTVSPost2010Prop35
280
     0
102
RTVSPost2010PropOp35
 70
     0
102
RTVSPost2010Prop36
280
     0
102
RTVSPost2010PropOp36
 70
     0
102
RTVSPost2010Prop37
 90
       50
102
RTVSPost2010PropOp37
 70
     0
102
RTVSPost2010Prop38
140
0.0
102
RTVSPost2010PropOp38
 70
     0
102
RTVSPost2010Prop39
140
1.0
102
RTVSPost2010PropOp39
 70
     0
102
RTVSPost2010Prop40
 90
        0
102
RTVSPost2010PropOp40
 70
     0
102
RTVSPost2010Prop41ColorIndex
 90
       18
102
RTVSPost2010Prop41ColorRGB
 90
        0
102
RTVSPost2010PropOp41
 70
     0
102
RTVSPost2010Prop42
 90
       50
102
RTVSPost2010PropOp42
 70
     0
102
RTVSPost2010Prop43
 90
        3
102
RTVSPost2010PropOp43
 70
     0
102
RTVSPost2010Prop44ColorIndex
 90
        5
102
RTVSPost2010Prop44ColorRGB
 90
      255
102
RTVSPost2010PropOp44
 70
     0
102
RTVSPost2010Prop45
280
     0
102
RTVSPost2010PropOp45
 70
     0
102
RTVSPost2010Prop46
 90
       50
102
RTVSPost2010PropOp46
 70
     0
102
RTVSPost2010Prop47
 90
       50
102
RTVSPost2010PropOp47
 70
     0
102
RTVSPost2010Prop48
 90
       50
102
RTVSPost2010PropOp48
 70
     0
102
RTVSPost2010Prop49
280
     0
102
RTVSPost2010PropOp49
 70
     0
102
RTVSPost2010Prop50
 90
       50
102
RTVSPost2010PropOp50
 70
     0
102
RTVSPost2010Prop51ColorIndex
 90
      256
102
RTVSPost2010Prop51ColorRGB
 90
-16777216
102
RTVSPost2010PropOp51
 70
     0
102
RTVSPost2010Prop52
140
1.0
102
RTVSPost2010PropOp52
 70
     0
102
RTVSPost2010Prop53
 90
        2
102
RTVSPost2010PropOp53
 70
     0
102
RTVSPost2010Prop54
  1
strokes_ogs.tif
102
RTVSPost2010PropOp54
 70
     0
102
RTVSPost2010Prop55
280
     0
102
RTVSPost2010PropOp55
 70
     0
102
RTVSPost2010Prop56
140
1.0
102
RTVSPost2010PropOp56
 70
     0
102
RTVSPost2010Prop57
140
1.0
102
RTVSPost2010PropOp57
 70
     0
102
RTVSPropertyOp0
 70
     0
102
RTVSPropertyOp1
 70
     0
102
RTVSPropertyOp2
 70
     0
102
RTVSPropertyOp3
 70
     0
102
RTVSPropertyOp4
 70
     0
102
RTVSPropertyOp5
 70
     0
102
RTVSPropertyOp6
 70
     0
102
RTVSPropertyOp7
 70
     0
102
RTVSPropertyOp8
 70
     0
102
RTVSPropertyOp9
 70
     0
102
RTVSPropertyOp10
 70
     0
102
RTVSPropertyOp11
 70
     0
102
RTVSPropertyOp12
 70
     0
102
RTVSPropertyOp13
 70
     0
102
RTVSPropertyOp14
 70
     2
102
RTVSPropertyOp15
 70
     0
102
RTVSPropertyOp16
 70
     0
102
RTVSPropertyOp17
 70
     0
102
RTVSPropertyOp18
 70
     0
102
RTVSPropertyOp19
 70
     0
102
RTVSPropertyOp20
 70
     0
102
RTVSPropertyOp21
 70
     0
102
RTVSPropertyOp22
 70
     0
102
RTVSPropertyOp23
 70
     0
102
RTVSPropertyOp24
 70
     0
102
RTVSPropertyOp25
 70
     0
102
RTVSPropertyOp26
 70
     0
102
RTVSPropertyOp27
 70
     0
102
RTVSPropertyOp28
 70
     0
102
RTVSPropertyOp29
 70
     0
102
RTVSPropertyOp30
 70
     0
102
RTVSPropertyOp31
 70
     0
102
RTVSPropertyOp32
 70
     0
102
RTVSPropertyOp33
 70
     0
102
RTVSPropertyOp34
 70
     0
102
RTVSPropertyOp35
 70
     0
102
RTVSPropertyOp36
 70
     0
102
RTVSPropertyOp37
 70
     0
102
RTVSPropertyOp38
 70
     0
102
RTVSPropertyOp39
 70
     0
102
RTVSPropertyOp40
 70
     0
102
RTVSPropertyOp41
 70
     0
102
RTVSPropertyOp42
 70
     0
102
RTVSPropertyOp43
 70
     0
102
RTVSPropertyOp44
 70
     0
102
RTVSPropertyOp45
 70
     0
102
RTVSPropertyOp46
 70
     0
102
RTVSPropertyOp47
 70
     0
102
RTVSPropertyOp48
 70
     0
102
RTVSPropertyOp49
 70
     0
102
RTVSPropertyOp50
 70
     0
102
RTVSPropertyOp51
 70
     0
102
RTVSPropertyOp52
 70
     0
102
RTVSPropertyOp53
 70
     0
102
RTVSPropertyOp54
 70
     0
102
RTVSPropertyOp55
 70
     0
102
RTVSPropertyOp56
 70
     0
102
RTVSPropertyOp57
 70
     0
102
RTVSPropertyOp58
 70
     0
102
RTVSPropertyOp59
 70
     0
102
RTVSPropertyOp60
 70
     0
102
RTVSPropertyOp61
 70
     0
102
RTVSPropertyOp62
 70
     0
  0
XRECORD
  5
25B
102
{ACAD_REACTORS
330
25A
102
}
330
25A
100
AcDbXrecord
280
     1
102
RTVSPost2010Prop28
280
     0
102
RTVSPost2010PropOp28
 70
     1
102
RTVSPost2010Prop29
280
     1
102
RTVSPost2010PropOp29
 70
     1
102
RTVSPost2010Prop30
280
     1
102
RTVSPost2010PropOp30
 70
     1
102
RTVSPost2010Prop31
280
     0
102
RTVSPost2010PropOp31
 70
     1
102
RTVSPost2010Prop32
280
     0
102
RTVSPost2010PropOp32
 70
     1
102
RTVSPost2010Prop33
280
     0
102
RTVSPost2010PropOp33
 70
     1
102
RTVSPost2010Prop34
280
     0
102
RTVSPost2010PropOp34
 70
     1
102
RTVSPost2010Prop35
280
     0
102
RTVSPost2010PropOp35
 70
     1
102
RTVSPost2010Prop36
280
     0
102
RTVSPost2010PropOp36
 70
     1
102
RTVSPost2010Prop37
 90
       50
102
RTVSPost2010PropOp37
 70
     1
102
RTVSPost2010Prop38
140
0.0
102
RTVSPost2010PropOp38
 70
     1
102
RTVSPost2010Prop39
140
1.0
102
RTVSPost2010PropOp39
 70
     1
102
RTVSPost2010Prop40
 90
        0
102
RTVSPost2010PropOp40
 70
     1
102
RTVSPost2010Prop41ColorIndex
 90
       18
102
RTVSPost2010Prop41ColorRGB
 90
        0
102
RTVSPost2010PropOp41
 70
     1
102
RTVSPost2010Prop42
 90
       50
102
RTVSPost2010PropOp42
 70
     1
102
RTVSPost2010Prop43
 90
        3
102
RTVSPost2010PropOp43
 70
     1
102
RTVSPost2010Prop44ColorIndex
 90
        5
102
RTVSPost2010Prop44ColorRGB
 90
      255
102
RTVSPost2010PropOp44
 70
     1
102
RTVSPost2010Prop45
280
     0
102
RTVSPost2010PropOp45
 70
     1
102
RTVSPost2010Prop46
 90
       50
102
RTVSPost2010PropOp46
 70
     1
102
RTVSPost2010Prop47
 90
       50
102
RTVSPost2010PropOp47
 70
     1
102
RTVSPost2010Prop48
 90
       50
102
RTVSPost2010PropOp48
 70
     1
102
RTVSPost2010Prop49
280
     0
102
RTVSPost2010PropOp49
 70
     1
102
RTVSPost2010Prop50
 90
       50
102
RTVSPost2010PropOp50
 70
     1
102
RTVSPost2010Prop51ColorIndex
 90
      256
102
RTVSPost2010Prop51ColorRGB
 90
-16777216
102
RTVSPost2010PropOp51
 70
     0
102
RTVSPost2010Prop52
140
1.0
102
RTVSPost2010PropOp52
 70
     0
102
RTVSPost2010Prop53
 90
        2
102
RTVSPost2010PropOp53
 70
     1
102
RTVSPost2010Prop54
  1
strokes_ogs.tif
102
RTVSPost2010PropOp54
 70
     1
102
RTVSPost2010Prop55
280
     0
102
RTVSPost2010PropOp55
 70
     1
102
RTVSPost2010Prop56
140
1.0
102
RTVSPost2010PropOp56
 70
     1
102
RTVSPost2010Prop57
140
1.0
102
RTVSPost2010PropOp57
 70
     1
102
RTVSPropertyOp0
 70
     1
102
RTVSPropertyOp1
 70
     1
102
RTVSPropertyOp2
 70
     1
102
RTVSPropertyOp3
 70
     1
102
RTVSPropertyOp4
 70
     1
102
RTVSPropertyOp5
 70
     1
102
RTVSPropertyOp6
 70
     1
102
RTVSPropertyOp7
 70
     1
102
RTVSPropertyOp8
 70
     1
102
RTVSPropertyOp9
 70
     1
102
RTVSPropertyOp10
 70
     1
102
RTVSPropertyOp11
 70
     1
102
RTVSPropertyOp12
 70
     1
102
RTVSPropertyOp13
 70
     1
102
RTVSPropertyOp14
 70
     1
102
RTVSPropertyOp15
 70
     1
102
RTVSPropertyOp16
 70
     1
102
RTVSPropertyOp17
 70
     1
102
RTVSPropertyOp18
 70
     1
102
RTVSPropertyOp19
 70
     1
102
RTVSPropertyOp20
 70
     1
102
RTVSPropertyOp21
 70
     1
102
RTVSPropertyOp22
 70
     1
102
RTVSPropertyOp23
 70
     1
102
RTVSPropertyOp24
 70
     1
102
RTVSPropertyOp25
 70
     1
102
RTVSPropertyOp26
 70
     1
102
RTVSPropertyOp27
 70
     1
102
RTVSPropertyOp28
 70
     1
102
RTVSPropertyOp29
 70
     1
102
RTVSPropertyOp30
 70
     1
102
RTVSPropertyOp31
 70
     1
102
RTVSPropertyOp32
 70
     1
102
RTVSPropertyOp33
 70
     1
102
RTVSPropertyOp34
 70
     1
102
RTVSPropertyOp35
 70
     1
102
RTVSPropertyOp36
 70
     1
102
RTVSPropertyOp37
 70
     1
102
RTVSPropertyOp38
 70
     1
102
RTVSPropertyOp39
 70
     1
102
RTVSPropertyOp40
 70
     1
102
RTVSPropertyOp41
 70
     1
102
RTVSPropertyOp42
 70
     1
102
RTVSPropertyOp43
 70
     1
102
RTVSPropertyOp44
 70
     1
102
RTVSPropertyOp45
 70
     1
102
RTVSPropertyOp46
 70
     1
102
RTVSPropertyOp47
 70
     1
102
RTVSPropertyOp48
 70
     1
102
RTVSPropertyOp49
 70
     1
102
RTVSPropertyOp50
 70
     1
102
RTVSPropertyOp51
 70
     0
102
RTVSPropertyOp52
 70
     0
102
RTVSPropertyOp53
 70
     1
102
RTVSPropertyOp54
 70
     1
102
RTVSPropertyOp55
 70
     1
102
RTVSPropertyOp56
 70
     1
102
RTVSPropertyOp57
 70
     1
102
RTVSPropertyOp58
 70
     1
102
RTVSPropertyOp59
 70
     1
102
RTVSPropertyOp60
 70
     1
102
RTVSPropertyOp61
 70
     1
102
RTVSPropertyOp62
 70
     1
  0
XRECORD
  5
23F
102
{ACAD_REACTORS
330
23E
102
}
330
23E
100
AcDbXrecord
280
     1
102
RTVSPost2010Prop28
280
     0
102
RTVSPost2010PropOp28
 70
     1
102
RTVSPost2010Prop29
280
     1
102
RTVSPost2010PropOp29
 70
     1
102
RTVSPost2010Prop30
280
     1
102
RTVSPost2010PropOp30
 70
     1
102
RTVSPost2010Prop31
280
     0
102
RTVSPost2010PropOp31
 70
     1
102
RTVSPost2010Prop32
280
     0
102
RTVSPost2010PropOp32
 70
     1
102
RTVSPost2010Prop33
280
     0
102
RTVSPost2010PropOp33
 70
     1
102
RTVSPost2010Prop34
280
     0
102
RTVSPost2010PropOp34
 70
     1
102
RTVSPost2010Prop35
280
     0
102
RTVSPost2010PropOp35
 70
     1
102
RTVSPost2010Prop36
280
     0
102
RTVSPost2010PropOp36
 70
     1
102
RTVSPost2010Prop37
 90
       50
102
RTVSPost2010PropOp37
 70
     1
102
RTVSPost2010Prop38
140
0.0
102
RTVSPost2010PropOp38
 70
     1
102
RTVSPost2010Prop39
140
1.0
102
RTVSPost2010PropOp39
 70
     1
102
RTVSPost2010Prop40
 90
        0
102
RTVSPost2010PropOp40
 70
     1
102
RTVSPost2010Prop41ColorIndex
 90
       18
102
RTVSPost2010Prop41ColorRGB
 90
        0
102
RTVSPost2010PropOp41
 70
     1
102
RTVSPost2010Prop42
 90
       50
102
RTVSPost2010PropOp42
 70
     1
102
RTVSPost2010Prop43
 90
        3
102
RTVSPost2010PropOp43
 70
     1
102
RTVSPost2010Prop44ColorIndex
 90
        5
102
RTVSPost2010Prop44ColorRGB
 90
      255
102
RTVSPost2010PropOp44
 70
     1
102
RTVSPost2010Prop45
280
     0
102
RTVSPost2010PropOp45
 70
     1
102
RTVSPost2010Prop46
 90
       50
102
RTVSPost2010PropOp46
 70
     1
102
RTVSPost2010Prop47
 90
       50
102
RTVSPost2010PropOp47
 70
     1
102
RTVSPost2010Prop48
 90
       50
102
RTVSPost2010PropOp48
 70
     1
102
RTVSPost2010Prop49
280
     0
102
RTVSPost2010PropOp49
 70
     1
102
RTVSPost2010Prop50
 90
       50
102
RTVSPost2010PropOp50
 70
     1
102
RTVSPost2010Prop51ColorIndex
 90
      256
102
RTVSPost2010Prop51ColorRGB
 90
-16777216
102
RTVSPost2010PropOp51
 70
     0
102
RTVSPost2010Prop52
140
1.0
102
RTVSPost2010PropOp52
 70
     0
102
RTVSPost2010Prop53
 90
        2
102
RTVSPost2010PropOp53
 70
     1
102
RTVSPost2010Prop54
  1
strokes_ogs.tif
102
RTVSPost2010PropOp54
 70
     1
102
RTVSPost2010Prop55
280
     0
102
RTVSPost2010PropOp55
 70
     1
102
RTVSPost2010Prop56
140
1.0
102
RTVSPost2010PropOp56
 70
     1
102
RTVSPost2010Prop57
140
1.0
102
RTVSPost2010PropOp57
 70
     1
102
RTVSPropertyOp0
 70
     1
102
RTVSPropertyOp1
 70
     1
102
RTVSPropertyOp2
 70
     1
102
RTVSPropertyOp3
 70
     1
102
RTVSPropertyOp4
 70
     1
102
RTVSPropertyOp5
 70
     1
102
RTVSPropertyOp6
 70
     1
102
RTVSPropertyOp7
 70
     1
102
RTVSPropertyOp8
 70
     1
102
RTVSPropertyOp9
 70
     1
102
RTVSPropertyOp10
 70
     1
102
RTVSPropertyOp11
 70
     1
102
RTVSPropertyOp12
 70
     1
102
RTVSPropertyOp13
 70
     1
102
RTVSPropertyOp14
 70
     1
102
RTVSPropertyOp15
 70
     1
102
RTVSPropertyOp16
 70
     1
102
RTVSPropertyOp17
 70
     1
102
RTVSPropertyOp18
 70
     1
102
RTVSPropertyOp19
 70
     1
102
RTVSPropertyOp20
 70
     1
102
RTVSPropertyOp21
 70
     1
102
RTVSPropertyOp22
 70
     1
102
RTVSPropertyOp23
 70
     1
102
RTVSPropertyOp24
 70
     1
102
RTVSPropertyOp25
 70
     1
102
RTVSPropertyOp26
 70
     1
102
RTVSPropertyOp27
 70
     1
102
RTVSPropertyOp28
 70
     1
102
RTVSPropertyOp29
 70
     1
102
RTVSPropertyOp30
 70
     1
102
RTVSPropertyOp31
 70
     1
102
RTVSPropertyOp32
 70
     1
102
RTVSPropertyOp33
 70
     1
102
RTVSPropertyOp34
 70
     1
102
RTVSPropertyOp35
 70
     1
102
RTVSPropertyOp36
 70
     1
102
RTVSPropertyOp37
 70
     1
102
RTVSPropertyOp38
 70
     1
102
RTVSPropertyOp39
 70
     1
102
RTVSPropertyOp40
 70
     1
102
RTVSPropertyOp41
 70
     1
102
RTVSPropertyOp42
 70
     1
102
RTVSPropertyOp43
 70
     1
102
RTVSPropertyOp44
 70
     1
102
RTVSPropertyOp45
 70
     1
102
RTVSPropertyOp46
 70
     1
102
RTVSPropertyOp47
 70
     1
102
RTVSPropertyOp48
 70
     1
102
RTVSPropertyOp49
 70
     1
102
RTVSPropertyOp50
 70
     1
102
RTVSPropertyOp51
 70
     0
102
RTVSPropertyOp52
 70
     0
102
RTVSPropertyOp53
 70
     1
102
RTVSPropertyOp54
 70
     1
102
RTVSPropertyOp55
 70
     1
102
RTVSPropertyOp56
 70
     1
102
RTVSPropertyOp57
 70
     1
102
RTVSPropertyOp58
 70
     1
102
RTVSPropertyOp59
 70
     1
102
RTVSPropertyOp60
 70
     1
102
RTVSPropertyOp61
 70
     1
102
RTVSPropertyOp62
 70
     1
  0
XRECORD
  5
241
102
{ACAD_REACTORS
330
240
102
}
330
240
100
AcDbXrecord
280
     1
102
RTVSPost2010Prop28
280
     0
102
RTVSPost2010PropOp28
 70
     1
102
RTVSPost2010Prop29
280
     1
102
RTVSPost2010PropOp29
 70
     1
102
RTVSPost2010Prop30
280
     1
102
RTVSPost2010PropOp30
 70
     1
102
RTVSPost2010Prop31
280
     0
102
RTVSPost2010PropOp31
 70
     1
102
RTVSPost2010Prop32
280
     0
102
RTVSPost2010PropOp32
 70
     1
102
RTVSPost2010Prop33
280
     0
102
RTVSPost2010PropOp33
 70
     1
102
RTVSPost2010Prop34
280
     0
102
RTVSPost2010PropOp34
 70
     1
102
RTVSPost2010Prop35
280
     0
102
RTVSPost2010PropOp35
 70
     1
102
RTVSPost2010Prop36
280
     0
102
RTVSPost2010PropOp36
 70
     1
102
RTVSPost2010Prop37
 90
       50
102
RTVSPost2010PropOp37
 70
     1
102
RTVSPost2010Prop38
140
0.0
102
RTVSPost2010PropOp38
 70
     1
102
RTVSPost2010Prop39
140
1.0
102
RTVSPost2010PropOp39
 70
     1
102
RTVSPost2010Prop40
 90
        0
102
RTVSPost2010PropOp40
 70
     1
102
RTVSPost2010Prop41ColorIndex
 90
       18
102
RTVSPost2010Prop41ColorRGB
 90
        0
102
RTVSPost2010PropOp41
 70
     1
102
RTVSPost2010Prop42
 90
       50
102
RTVSPost2010PropOp42
 70
     1
102
RTVSPost2010Prop43
 90
        3
102
RTVSPost2010PropOp43
 70
     1
102
RTVSPost2010Prop44ColorIndex
 90
        5
102
RTVSPost2010Prop44ColorRGB
 90
      255
102
RTVSPost2010PropOp44
 70
     1
102
RTVSPost2010Prop45
280
     0
102
RTVSPost2010PropOp45
 70
     1
102
RTVSPost2010Prop46
 90
       50
102
RTVSPost2010PropOp46
 70
     1
102
RTVSPost2010Prop47
 90
       50
102
RTVSPost2010PropOp47
 70
     1
102
RTVSPost2010Prop48
 90
       50
102
RTVSPost2010PropOp48
 70
     1
102
RTVSPost2010Prop49
280
     0
102
RTVSPost2010PropOp49
 70
     1
102
RTVSPost2010Prop50
 90
       50
102
RTVSPost2010PropOp50
 70
     1
102
RTVSPost2010Prop51ColorIndex
 90
      256
102
RTVSPost2010Prop51ColorRGB
 90
-16777216
102
RTVSPost2010PropOp51
 70
     0
102
RTVSPost2010Prop52
140
1.0
102
RTVSPost2010PropOp52
 70
     0
102
RTVSPost2010Prop53
 90
        2
102
RTVSPost2010PropOp53
 70
     1
102
RTVSPost2010Prop54
  1
strokes_ogs.tif
102
RTVSPost2010PropOp54
 70
     1
102
RTVSPost2010Prop55
280
     0
102
RTVSPost2010PropOp55
 70
     1
102
RTVSPost2010Prop56
140
1.0
102
RTVSPost2010PropOp56
 70
     1
102
RTVSPost2010Prop57
140
1.0
102
RTVSPost2010PropOp57
 70
     1
102
RTVSPropertyOp0
 70
     1
102
RTVSPropertyOp1
 70
     1
102
RTVSPropertyOp2
 70
     1
102
RTVSPropertyOp3
 70
     1
102
RTVSPropertyOp4
 70
     1
102
RTVSPropertyOp5
 70
     1
102
RTVSPropertyOp6
 70
     1
102
RTVSPropertyOp7
 70
     1
102
RTVSPropertyOp8
 70
     1
102
RTVSPropertyOp9
 70
     1
102
RTVSPropertyOp10
 70
     1
102
RTVSPropertyOp11
 70
     1
102
RTVSPropertyOp12
 70
     1
102
RTVSPropertyOp13
 70
     1
102
RTVSPropertyOp14
 70
     1
102
RTVSPropertyOp15
 70
     1
102
RTVSPropertyOp16
 70
     1
102
RTVSPropertyOp17
 70
     1
102
RTVSPropertyOp18
 70
     1
102
RTVSPropertyOp19
 70
     1
102
RTVSPropertyOp20
 70
     1
102
RTVSPropertyOp21
 70
     1
102
RTVSPropertyOp22
 70
     1
102
RTVSPropertyOp23
 70
     1
102
RTVSPropertyOp24
 70
     1
102
RTVSPropertyOp25
 70
     1
102
RTVSPropertyOp26
 70
     1
102
RTVSPropertyOp27
 70
     1
102
RTVSPropertyOp28
 70
     1
102
RTVSPropertyOp29
 70
     1
102
RTVSPropertyOp30
 70
     1
102
RTVSPropertyOp31
 70
     1
102
RTVSPropertyOp32
 70
     1
102
RTVSPropertyOp33
 70
     1
102
RTVSPropertyOp34
 70
     1
102
RTVSPropertyOp35
 70
     1
102
RTVSPropertyOp36
 70
     1
102
RTVSPropertyOp37
 70
     1
102
RTVSPropertyOp38
 70
     1
102
RTVSPropertyOp39
 70
     1
102
RTVSPropertyOp40
 70
     1
102
RTVSPropertyOp41
 70
     1
102
RTVSPropertyOp42
 70
     1
102
RTVSPropertyOp43
 70
     1
102
RTVSPropertyOp44
 70
     1
102
RTVSPropertyOp45
 70
     1
102
RTVSPropertyOp46
 70
     1
102
RTVSPropertyOp47
 70
     1
102
RTVSPropertyOp48
 70
     1
102
RTVSPropertyOp49
 70
     1
102
RTVSPropertyOp50
 70
     1
102
RTVSPropertyOp51
 70
     0
102
RTVSPropertyOp52
 70
     0
102
RTVSPropertyOp53
 70
     1
102
RTVSPropertyOp54
 70
     1
102
RTVSPropertyOp55
 70
     1
102
RTVSPropertyOp56
 70
     1
102
RTVSPropertyOp57
 70
     1
102
RTVSPropertyOp58
 70
     1
102
RTVSPropertyOp59
 70
     1
102
RTVSPropertyOp60
 70
     1
102
RTVSPropertyOp61
 70
     1
102
RTVSPropertyOp62
 70
     1
  0
XRECORD
  5
243
102
{ACAD_REACTORS
330
242
102
}
330
242
100
AcDbXrecord
280
     1
102
RTVSPost2010Prop28
280
     0
102
RTVSPost2010PropOp28
 70
     1
102
RTVSPost2010Prop29
280
     1
102
RTVSPost2010PropOp29
 70
     1
102
RTVSPost2010Prop30
280
     1
102
RTVSPost2010PropOp30
 70
     1
102
RTVSPost2010Prop31
280
     0
102
RTVSPost2010PropOp31
 70
     1
102
RTVSPost2010Prop32
280
     0
102
RTVSPost2010PropOp32
 70
     1
102
RTVSPost2010Prop33
280
     0
102
RTVSPost2010PropOp33
 70
     1
102
RTVSPost2010Prop34
280
     0
102
RTVSPost2010PropOp34
 70
     1
102
RTVSPost2010Prop35
280
     0
102
RTVSPost2010PropOp35
 70
     1
102
RTVSPost2010Prop36
280
     0
102
RTVSPost2010PropOp36
 70
     1
102
RTVSPost2010Prop37
 90
       50
102
RTVSPost2010PropOp37
 70
     1
102
RTVSPost2010Prop38
140
0.0
102
RTVSPost2010PropOp38
 70
     1
102
RTVSPost2010Prop39
140
1.0
102
RTVSPost2010PropOp39
 70
     1
102
RTVSPost2010Prop40
 90
        0
102
RTVSPost2010PropOp40
 70
     1
102
RTVSPost2010Prop41ColorIndex
 90
       18
102
RTVSPost2010Prop41ColorRGB
 90
        0
102
RTVSPost2010PropOp41
 70
     1
102
RTVSPost2010Prop42
 90
       50
102
RTVSPost2010PropOp42
 70
     1
102
RTVSPost2010Prop43
 90
        3
102
RTVSPost2010PropOp43
 70
     1
102
RTVSPost2010Prop44ColorIndex
 90
        5
102
RTVSPost2010Prop44ColorRGB
 90
      255
102
RTVSPost2010PropOp44
 70
     1
102
RTVSPost2010Prop45
280
     0
102
RTVSPost2010PropOp45
 70
     1
102
RTVSPost2010Prop46
 90
       50
102
RTVSPost2010PropOp46
 70
     1
102
RTVSPost2010Prop47
 90
       50
102
RTVSPost2010PropOp47
 70
     1
102
RTVSPost2010Prop48
 90
       50
102
RTVSPost2010PropOp48
 70
     1
102
RTVSPost2010Prop49
280
     0
102
RTVSPost2010PropOp49
 70
     1
102
RTVSPost2010Prop50
 90
       50
102
RTVSPost2010PropOp50
 70
     1
102
RTVSPost2010Prop51ColorIndex
 90
      256
102
RTVSPost2010Prop51ColorRGB
 90
-16777216
102
RTVSPost2010PropOp51
 70
     0
102
RTVSPost2010Prop52
140
1.0
102
RTVSPost2010PropOp52
 70
     0
102
RTVSPost2010Prop53
 90
        2
102
RTVSPost2010PropOp53
 70
     1
102
RTVSPost2010Prop54
  1
strokes_ogs.tif
102
RTVSPost2010PropOp54
 70
     1
102
RTVSPost2010Prop55
280
     0
102
RTVSPost2010PropOp55
 70
     1
102
RTVSPost2010Prop56
140
1.0
102
RTVSPost2010PropOp56
 70
     1
102
RTVSPost2010Prop57
140
1.0
102
RTVSPost2010PropOp57
 70
     1
102
RTVSPropertyOp0
 70
     1
102
RTVSPropertyOp1
 70
     1
102
RTVSPropertyOp2
 70
     1
102
RTVSPropertyOp3
 70
     1
102
RTVSPropertyOp4
 70
     1
102
RTVSPropertyOp5
 70
     1
102
RTVSPropertyOp6
 70
     1
102
RTVSPropertyOp7
 70
     1
102
RTVSPropertyOp8
 70
     1
102
RTVSPropertyOp9
 70
     1
102
RTVSPropertyOp10
 70
     1
102
RTVSPropertyOp11
 70
     1
102
RTVSPropertyOp12
 70
     1
102
RTVSPropertyOp13
 70
     1
102
RTVSPropertyOp14
 70
     1
102
RTVSPropertyOp15
 70
     1
102
RTVSPropertyOp16
 70
     1
102
RTVSPropertyOp17
 70
     1
102
RTVSPropertyOp18
 70
     1
102
RTVSPropertyOp19
 70
     1
102
RTVSPropertyOp20
 70
     1
102
RTVSPropertyOp21
 70
     1
102
RTVSPropertyOp22
 70
     1
102
RTVSPropertyOp23
 70
     1
102
RTVSPropertyOp24
 70
     1
102
RTVSPropertyOp25
 70
     1
102
RTVSPropertyOp26
 70
     1
102
RTVSPropertyOp27
 70
     1
102
RTVSPropertyOp28
 70
     1
102
RTVSPropertyOp29
 70
     1
102
RTVSPropertyOp30
 70
     1
102
RTVSPropertyOp31
 70
     1
102
RTVSPropertyOp32
 70
     1
102
RTVSPropertyOp33
 70
     1
102
RTVSPropertyOp34
 70
     1
102
RTVSPropertyOp35
 70
     1
102
RTVSPropertyOp36
 70
     1
102
RTVSPropertyOp37
 70
     1
102
RTVSPropertyOp38
 70
     1
102
RTVSPropertyOp39
 70
     1
102
RTVSPropertyOp40
 70
     1
102
RTVSPropertyOp41
 70
     1
102
RTVSPropertyOp42
 70
     1
102
RTVSPropertyOp43
 70
     1
102
RTVSPropertyOp44
 70
     1
102
RTVSPropertyOp45
 70
     1
102
RTVSPropertyOp46
 70
     1
102
RTVSPropertyOp47
 70
     1
102
RTVSPropertyOp48
 70
     1
102
RTVSPropertyOp49
 70
     1
102
RTVSPropertyOp50
 70
     1
102
RTVSPropertyOp51
 70
     0
102
RTVSPropertyOp52
 70
     0
102
RTVSPropertyOp53
 70
     1
102
RTVSPropertyOp54
 70
     1
102
RTVSPropertyOp55
 70
     1
102
RTVSPropertyOp56
 70
     1
102
RTVSPropertyOp57
 70
     1
102
RTVSPropertyOp58
 70
     1
102
RTVSPropertyOp59
 70
     1
102
RTVSPropertyOp60
 70
     1
102
RTVSPropertyOp61
 70
     1
102
RTVSPropertyOp62
 70
     1
  0
XRECORD
  5
245
102
{ACAD_REACTORS
330
244
102
}
330
244
100
AcDbXrecord
280
     1
102
RTVSPost2010Prop28
280
     0
102
RTVSPost2010PropOp28
 70
     1
102
RTVSPost2010Prop29
280
     1
102
RTVSPost2010PropOp29
 70
     1
102
RTVSPost2010Prop30
280
     1
102
RTVSPost2010PropOp30
 70
     1
102
RTVSPost2010Prop31
280
     0
102
RTVSPost2010PropOp31
 70
     1
102
RTVSPost2010Prop32
280
     0
102
RTVSPost2010PropOp32
 70
     1
102
RTVSPost2010Prop33
280
     0
102
RTVSPost2010PropOp33
 70
     1
102
RTVSPost2010Prop34
280
     0
102
RTVSPost2010PropOp34
 70
     1
102
RTVSPost2010Prop35
280
     0
102
RTVSPost2010PropOp35
 70
     1
102
RTVSPost2010Prop36
280
     0
102
RTVSPost2010PropOp36
 70
     1
102
RTVSPost2010Prop37
 90
       50
102
RTVSPost2010PropOp37
 70
     1
102
RTVSPost2010Prop38
140
0.0
102
RTVSPost2010PropOp38
 70
     1
102
RTVSPost2010Prop39
140
1.0
102
RTVSPost2010PropOp39
 70
     1
102
RTVSPost2010Prop40
 90
        0
102
RTVSPost2010PropOp40
 70
     1
102
RTVSPost2010Prop41ColorIndex
 90
       18
102
RTVSPost2010Prop41ColorRGB
 90
        0
102
RTVSPost2010PropOp41
 70
     1
102
RTVSPost2010Prop42
 90
       50
102
RTVSPost2010PropOp42
 70
     1
102
RTVSPost2010Prop43
 90
        3
102
RTVSPost2010PropOp43
 70
     1
102
RTVSPost2010Prop44ColorIndex
 90
        5
102
RTVSPost2010Prop44ColorRGB
 90
      255
102
RTVSPost2010PropOp44
 70
     1
102
RTVSPost2010Prop45
280
     0
102
RTVSPost2010PropOp45
 70
     1
102
RTVSPost2010Prop46
 90
       50
102
RTVSPost2010PropOp46
 70
     1
102
RTVSPost2010Prop47
 90
       50
102
RTVSPost2010PropOp47
 70
     1
102
RTVSPost2010Prop48
 90
       50
102
RTVSPost2010PropOp48
 70
     1
102
RTVSPost2010Prop49
280
     0
102
RTVSPost2010PropOp49
 70
     1
102
RTVSPost2010Prop50
 90
       50
102
RTVSPost2010PropOp50
 70
     1
102
RTVSPost2010Prop51ColorIndex
 90
      256
102
RTVSPost2010Prop51ColorRGB
 90
-16777216
102
RTVSPost2010PropOp51
 70
     0
102
RTVSPost2010Prop52
140
1.0
102
RTVSPost2010PropOp52
 70
     0
102
RTVSPost2010Prop53
 90
        2
102
RTVSPost2010PropOp53
 70
     1
102
RTVSPost2010Prop54
  1
strokes_ogs.tif
102
RTVSPost2010PropOp54
 70
     1
102
RTVSPost2010Prop55
280
     0
102
RTVSPost2010PropOp55
 70
     1
102
RTVSPost2010Prop56
140
1.0
102
RTVSPost2010PropOp56
 70
     1
102
RTVSPost2010Prop57
140
1.0
102
RTVSPost2010PropOp57
 70
     1
102
RTVSPropertyOp0
 70
     1
102
RTVSPropertyOp1
 70
     1
102
RTVSPropertyOp2
 70
     1
102
RTVSPropertyOp3
 70
     1
102
RTVSPropertyOp4
 70
     1
102
RTVSPropertyOp5
 70
     1
102
RTVSPropertyOp6
 70
     1
102
RTVSPropertyOp7
 70
     1
102
RTVSPropertyOp8
 70
     1
102
RTVSPropertyOp9
 70
     1
102
RTVSPropertyOp10
 70
     1
102
RTVSPropertyOp11
 70
     1
102
RTVSPropertyOp12
 70
     1
102
RTVSPropertyOp13
 70
     1
102
RTVSPropertyOp14
 70
     1
102
RTVSPropertyOp15
 70
     1
102
RTVSPropertyOp16
 70
     1
102
RTVSPropertyOp17
 70
     1
102
RTVSPropertyOp18
 70
     1
102
RTVSPropertyOp19
 70
     1
102
RTVSPropertyOp20
 70
     1
102
RTVSPropertyOp21
 70
     1
102
RTVSPropertyOp22
 70
     1
102
RTVSPropertyOp23
 70
     1
102
RTVSPropertyOp24
 70
     1
102
RTVSPropertyOp25
 70
     1
102
RTVSPropertyOp26
 70
     1
102
RTVSPropertyOp27
 70
     1
102
RTVSPropertyOp28
 70
     1
102
RTVSPropertyOp29
 70
     1
102
RTVSPropertyOp30
 70
     1
102
RTVSPropertyOp31
 70
     1
102
RTVSPropertyOp32
 70
     1
102
RTVSPropertyOp33
 70
     1
102
RTVSPropertyOp34
 70
     1
102
RTVSPropertyOp35
 70
     1
102
RTVSPropertyOp36
 70
     1
102
RTVSPropertyOp37
 70
     1
102
RTVSPropertyOp38
 70
     1
102
RTVSPropertyOp39
 70
     1
102
RTVSPropertyOp40
 70
     1
102
RTVSPropertyOp41
 70
     1
102
RTVSPropertyOp42
 70
     1
102
RTVSPropertyOp43
 70
     1
102
RTVSPropertyOp44
 70
     1
102
RTVSPropertyOp45
 70
     1
102
RTVSPropertyOp46
 70
     1
102
RTVSPropertyOp47
 70
     1
102
RTVSPropertyOp48
 70
     1
102
RTVSPropertyOp49
 70
     1
102
RTVSPropertyOp50
 70
     1
102
RTVSPropertyOp51
 70
     0
102
RTVSPropertyOp52
 70
     0
102
RTVSPropertyOp53
 70
     1
102
RTVSPropertyOp54
 70
     1
102
RTVSPropertyOp55
 70
     1
102
RTVSPropertyOp56
 70
     1
102
RTVSPropertyOp57
 70
     1
102
RTVSPropertyOp58
 70
     1
102
RTVSPropertyOp59
 70
     1
102
RTVSPropertyOp60
 70
     1
102
RTVSPropertyOp61
 70
     1
102
RTVSPropertyOp62
 70
     1
  0
XRECORD
  5
24D
102
{ACAD_REACTORS
330
24C
102
}
330
24C
100
AcDbXrecord
280
     1
102
RTVSPost2010Prop28
280
     0
102
RTVSPost2010PropOp28
 70
     1
102
RTVSPost2010Prop29
280
     1
102
RTVSPost2010PropOp29
 70
     1
102
RTVSPost2010Prop30
280
     1
102
RTVSPost2010PropOp30
 70
     1
102
RTVSPost2010Prop31
280
     0
102
RTVSPost2010PropOp31
 70
     1
102
RTVSPost2010Prop32
280
     0
102
RTVSPost2010PropOp32
 70
     1
102
RTVSPost2010Prop33
280
     0
102
RTVSPost2010PropOp33
 70
     1
102
RTVSPost2010Prop34
280
     0
102
RTVSPost2010PropOp34
 70
     1
102
RTVSPost2010Prop35
280
     0
102
RTVSPost2010PropOp35
 70
     1
102
RTVSPost2010Prop36
280
     0
102
RTVSPost2010PropOp36
 70
     1
102
RTVSPost2010Prop37
 90
       50
102
RTVSPost2010PropOp37
 70
     1
102
RTVSPost2010Prop38
140
0.0
102
RTVSPost2010PropOp38
 70
     1
102
RTVSPost2010Prop39
140
1.0
102
RTVSPost2010PropOp39
 70
     1
102
RTVSPost2010Prop40
 90
        0
102
RTVSPost2010PropOp40
 70
     1
102
RTVSPost2010Prop41ColorIndex
 90
       18
102
RTVSPost2010Prop41ColorRGB
 90
        0
102
RTVSPost2010PropOp41
 70
     1
102
RTVSPost2010Prop42
 90
       50
102
RTVSPost2010PropOp42
 70
     1
102
RTVSPost2010Prop43
 90
        3
102
RTVSPost2010PropOp43
 70
     1
102
RTVSPost2010Prop44ColorIndex
 90
        5
102
RTVSPost2010Prop44ColorRGB
 90
      255
102
RTVSPost2010PropOp44
 70
     1
102
RTVSPost2010Prop45
280
     0
102
RTVSPost2010PropOp45
 70
     1
102
RTVSPost2010Prop46
 90
       50
102
RTVSPost2010PropOp46
 70
     1
102
RTVSPost2010Prop47
 90
       50
102
RTVSPost2010PropOp47
 70
     1
102
RTVSPost2010Prop48
 90
       50
102
RTVSPost2010PropOp48
 70
     1
102
RTVSPost2010Prop49
280
     0
102
RTVSPost2010PropOp49
 70
     1
102
RTVSPost2010Prop50
 90
       50
102
RTVSPost2010PropOp50
 70
     1
102
RTVSPost2010Prop51ColorIndex
 90
      256
102
RTVSPost2010Prop51ColorRGB
 90
-16777216
102
RTVSPost2010PropOp51
 70
     0
102
RTVSPost2010Prop52
140
1.0
102
RTVSPost2010PropOp52
 70
     0
102
RTVSPost2010Prop53
 90
        2
102
RTVSPost2010PropOp53
 70
     1
102
RTVSPost2010Prop54
  1
strokes_ogs.tif
102
RTVSPost2010PropOp54
 70
     1
102
RTVSPost2010Prop55
280
     0
102
RTVSPost2010PropOp55
 70
     1
102
RTVSPost2010Prop56
140
1.0
102
RTVSPost2010PropOp56
 70
     1
102
RTVSPost2010Prop57
140
1.0
102
RTVSPost2010PropOp57
 70
     1
102
RTVSPropertyOp0
 70
     1
102
RTVSPropertyOp1
 70
     1
102
RTVSPropertyOp2
 70
     1
102
RTVSPropertyOp3
 70
     1
102
RTVSPropertyOp4
 70
     1
102
RTVSPropertyOp5
 70
     1
102
RTVSPropertyOp6
 70
     1
102
RTVSPropertyOp7
 70
     1
102
RTVSPropertyOp8
 70
     1
102
RTVSPropertyOp9
 70
     1
102
RTVSPropertyOp10
 70
     1
102
RTVSPropertyOp11
 70
     1
102
RTVSPropertyOp12
 70
     1
102
RTVSPropertyOp13
 70
     1
102
RTVSPropertyOp14
 70
     1
102
RTVSPropertyOp15
 70
     1
102
RTVSPropertyOp16
 70
     1
102
RTVSPropertyOp17
 70
     1
102
RTVSPropertyOp18
 70
     1
102
RTVSPropertyOp19
 70
     1
102
RTVSPropertyOp20
 70
     1
102
RTVSPropertyOp21
 70
     1
102
RTVSPropertyOp22
 70
     1
102
RTVSPropertyOp23
 70
     1
102
RTVSPropertyOp24
 70
     1
102
RTVSPropertyOp25
 70
     1
102
RTVSPropertyOp26
 70
     1
102
RTVSPropertyOp27
 70
     1
102
RTVSPropertyOp28
 70
     1
102
RTVSPropertyOp29
 70
     1
102
RTVSPropertyOp30
 70
     1
102
RTVSPropertyOp31
 70
     1
102
RTVSPropertyOp32
 70
     1
102
RTVSPropertyOp33
 70
     1
102
RTVSPropertyOp34
 70
     1
102
RTVSPropertyOp35
 70
     1
102
RTVSPropertyOp36
 70
     1
102
RTVSPropertyOp37
 70
     1
102
RTVSPropertyOp38
 70
     1
102
RTVSPropertyOp39
 70
     1
102
RTVSPropertyOp40
 70
     1
102
RTVSPropertyOp41
 70
     1
102
RTVSPropertyOp42
 70
     1
102
RTVSPropertyOp43
 70
     1
102
RTVSPropertyOp44
 70
     1
102
RTVSPropertyOp45
 70
     1
102
RTVSPropertyOp46
 70
     1
102
RTVSPropertyOp47
 70
     1
102
RTVSPropertyOp48
 70
     1
102
RTVSPropertyOp49
 70
     1
102
RTVSPropertyOp50
 70
     1
102
RTVSPropertyOp51
 70
     0
102
RTVSPropertyOp52
 70
     0
102
RTVSPropertyOp53
 70
     1
102
RTVSPropertyOp54
 70
     1
102
RTVSPropertyOp55
 70
     1
102
RTVSPropertyOp56
 70
     1
102
RTVSPropertyOp57
 70
     1
102
RTVSPropertyOp58
 70
     1
102
RTVSPropertyOp59
 70
     1
102
RTVSPropertyOp60
 70
     1
102
RTVSPropertyOp61
 70
     1
102
RTVSPropertyOp62
 70
     1
  0
XRECORD
  5
269
102
{ACAD_REACTORS
330
268
102
}
330
268
100
AcDbXrecord
280
     1
102
RTVSPost2010Prop28
280
     0
102
RTVSPost2010PropOp28
 70
     0
102
RTVSPost2010Prop29
280
     1
102
RTVSPost2010PropOp29
 70
     0
102
RTVSPost2010Prop30
280
     1
102
RTVSPost2010PropOp30
 70
     0
102
RTVSPost2010Prop31
280
     0
102
RTVSPost2010PropOp31
 70
     0
102
RTVSPost2010Prop32
280
     0
102
RTVSPost2010PropOp32
 70
     0
102
RTVSPost2010Prop33
280
     0
102
RTVSPost2010PropOp33
 70
     0
102
RTVSPost2010Prop34
280
     0
102
RTVSPost2010PropOp34
 70
     0
102
RTVSPost2010Prop35
280
     0
102
RTVSPost2010PropOp35
 70
     0
102
RTVSPost2010Prop36
280
     0
102
RTVSPost2010PropOp36
 70
     0
102
RTVSPost2010Prop37
 90
       50
102
RTVSPost2010PropOp37
 70
     0
102
RTVSPost2010Prop38
140
0.0
102
RTVSPost2010PropOp38
 70
     0
102
RTVSPost2010Prop39
140
1.0
102
RTVSPost2010PropOp39
 70
     0
102
RTVSPost2010Prop40
 90
        0
102
RTVSPost2010PropOp40
 70
     0
102
RTVSPost2010Prop41ColorIndex
 90
       18
102
RTVSPost2010Prop41ColorRGB
 90
        0
102
RTVSPost2010PropOp41
 70
     0
102
RTVSPost2010Prop42
 90
       50
102
RTVSPost2010PropOp42
 70
     0
102
RTVSPost2010Prop43
 90
        3
102
RTVSPost2010PropOp43
 70
     0
102
RTVSPost2010Prop44ColorIndex
 90
        5
102
RTVSPost2010Prop44ColorRGB
 90
      255
102
RTVSPost2010PropOp44
 70
     0
102
RTVSPost2010Prop45
280
     0
102
RTVSPost2010PropOp45
 70
     0
102
RTVSPost2010Prop46
 90
       50
102
RTVSPost2010PropOp46
 70
     0
102
RTVSPost2010Prop47
 90
       50
102
RTVSPost2010PropOp47
 70
     0
102
RTVSPost2010Prop48
 90
       50
102
RTVSPost2010PropOp48
 70
     0
102
RTVSPost2010Prop49
280
     0
102
RTVSPost2010PropOp49
 70
     0
102
RTVSPost2010Prop50
 90
       50
102
RTVSPost2010PropOp50
 70
     0
102
RTVSPost2010Prop51ColorIndex
 90
      256
102
RTVSPost2010Prop51ColorRGB
 90
-16777216
102
RTVSPost2010PropOp51
 70
     0
102
RTVSPost2010Prop52
140
1.0
102
RTVSPost2010PropOp52
 70
     0
102
RTVSPost2010Prop53
 90
        2
102
RTVSPost2010PropOp53
 70
     0
102
RTVSPost2010Prop54
  1
strokes_ogs.tif
102
RTVSPost2010PropOp54
 70
     0
102
RTVSPost2010Prop55
280
     0
102
RTVSPost2010PropOp55
 70
     0
102
RTVSPost2010Prop56
140
1.0
102
RTVSPost2010PropOp56
 70
     0
102
RTVSPost2010Prop57
140
1.0
102
RTVSPost2010PropOp57
 70
     0
102
RTVSPropertyOp0
 70
     0
102
RTVSPropertyOp1
 70
     0
102
RTVSPropertyOp2
 70
     0
102
RTVSPropertyOp3
 70
     0
102
RTVSPropertyOp4
 70
     0
102
RTVSPropertyOp5
 70
     0
102
RTVSPropertyOp6
 70
     0
102
RTVSPropertyOp7
 70
     0
102
RTVSPropertyOp8
 70
     0
102
RTVSPropertyOp9
 70
     0
102
RTVSPropertyOp10
 70
     0
102
RTVSPropertyOp11
 70
     0
102
RTVSPropertyOp12
 70
     0
102
RTVSPropertyOp13
 70
     0
102
RTVSPropertyOp14
 70
     2
102
RTVSPropertyOp15
 70
     0
102
RTVSPropertyOp16
 70
     0
102
RTVSPropertyOp17
 70
     0
102
RTVSPropertyOp18
 70
     0
102
RTVSPropertyOp19
 70
     0
102
RTVSPropertyOp20
 70
     0
102
RTVSPropertyOp21
 70
     0
102
RTVSPropertyOp22
 70
     0
102
RTVSPropertyOp23
 70
     0
102
RTVSPropertyOp24
 70
     0
102
RTVSPropertyOp25
 70
     0
102
RTVSPropertyOp26
 70
     0
102
RTVSPropertyOp27
 70
     0
102
RTVSPropertyOp28
 70
     0
102
RTVSPropertyOp29
 70
     0
102
RTVSPropertyOp30
 70
     0
102
RTVSPropertyOp31
 70
     0
102
RTVSPropertyOp32
 70
     0
102
RTVSPropertyOp33
 70
     0
102
RTVSPropertyOp34
 70
     0
102
RTVSPropertyOp35
 70
     0
102
RTVSPropertyOp36
 70
     0
102
RTVSPropertyOp37
 70
     0
102
RTVSPropertyOp38
 70
     0
102
RTVSPropertyOp39
 70
     0
102
RTVSPropertyOp40
 70
     0
102
RTVSPropertyOp41
 70
     0
102
RTVSPropertyOp42
 70
     0
102
RTVSPropertyOp43
 70
     0
102
RTVSPropertyOp44
 70
     0
102
RTVSPropertyOp45
 70
     0
102
RTVSPropertyOp46
 70
     0
102
RTVSPropertyOp47
 70
     0
102
RTVSPropertyOp48
 70
     0
102
RTVSPropertyOp49
 70
     0
102
RTVSPropertyOp50
 70
     0
102
RTVSPropertyOp51
 70
     0
102
RTVSPropertyOp52
 70
     0
102
RTVSPropertyOp53
 70
     0
102
RTVSPropertyOp54
 70
     0
102
RTVSPropertyOp55
 70
     0
102
RTVSPropertyOp56
 70
     0
102
RTVSPropertyOp57
 70
     0
102
RTVSPropertyOp58
 70
     0
102
RTVSPropertyOp59
 70
     0
102
RTVSPropertyOp60
 70
     0
102
RTVSPropertyOp61
 70
     0
102
RTVSPropertyOp62
 70
     0
  0
XRECORD
  5
259
102
{ACAD_REACTORS
330
258
102
}
330
258
100
AcDbXrecord
280
     1
102
RTVSPost2010Prop28
280
     0
102
RTVSPost2010PropOp28
 70
     1
102
RTVSPost2010Prop29
280
     1
102
RTVSPost2010PropOp29
 70
     1
102
RTVSPost2010Prop30
280
     1
102
RTVSPost2010PropOp30
 70
     1
102
RTVSPost2010Prop31
280
     0
102
RTVSPost2010PropOp31
 70
     1
102
RTVSPost2010Prop32
280
     0
102
RTVSPost2010PropOp32
 70
     1
102
RTVSPost2010Prop33
280
     0
102
RTVSPost2010PropOp33
 70
     1
102
RTVSPost2010Prop34
280
     0
102
RTVSPost2010PropOp34
 70
     1
102
RTVSPost2010Prop35
280
     0
102
RTVSPost2010PropOp35
 70
     1
102
RTVSPost2010Prop36
280
     0
102
RTVSPost2010PropOp36
 70
     1
102
RTVSPost2010Prop37
 90
       50
102
RTVSPost2010PropOp37
 70
     1
102
RTVSPost2010Prop38
140
0.0
102
RTVSPost2010PropOp38
 70
     1
102
RTVSPost2010Prop39
140
1.0
102
RTVSPost2010PropOp39
 70
     1
102
RTVSPost2010Prop40
 90
        0
102
RTVSPost2010PropOp40
 70
     1
102
RTVSPost2010Prop41ColorIndex
 90
       18
102
RTVSPost2010Prop41ColorRGB
 90
        0
102
RTVSPost2010PropOp41
 70
     1
102
RTVSPost2010Prop42
 90
       50
102
RTVSPost2010PropOp42
 70
     1
102
RTVSPost2010Prop43
 90
        3
102
RTVSPost2010PropOp43
 70
     1
102
RTVSPost2010Prop44ColorIndex
 90
        5
102
RTVSPost2010Prop44ColorRGB
 90
      255
102
RTVSPost2010PropOp44
 70
     1
102
RTVSPost2010Prop45
280
     0
102
RTVSPost2010PropOp45
 70
     1
102
RTVSPost2010Prop46
 90
       50
102
RTVSPost2010PropOp46
 70
     1
102
RTVSPost2010Prop47
 90
       50
102
RTVSPost2010PropOp47
 70
     1
102
RTVSPost2010Prop48
 90
       50
102
RTVSPost2010PropOp48
 70
     1
102
RTVSPost2010Prop49
280
     0
102
RTVSPost2010PropOp49
 70
     1
102
RTVSPost2010Prop50
 90
       50
102
RTVSPost2010PropOp50
 70
     1
102
RTVSPost2010Prop51ColorIndex
 90
      256
102
RTVSPost2010Prop51ColorRGB
 90
-16777216
102
RTVSPost2010PropOp51
 70
     0
102
RTVSPost2010Prop52
140
1.0
102
RTVSPost2010PropOp52
 70
     0
102
RTVSPost2010Prop53
 90
        2
102
RTVSPost2010PropOp53
 70
     1
102
RTVSPost2010Prop54
  1
strokes_ogs.tif
102
RTVSPost2010PropOp54
 70
     1
102
RTVSPost2010Prop55
280
     0
102
RTVSPost2010PropOp55
 70
     1
102
RTVSPost2010Prop56
140
1.0
102
RTVSPost2010PropOp56
 70
     1
102
RTVSPost2010Prop57
140
1.0
102
RTVSPost2010PropOp57
 70
     1
102
RTVSPropertyOp0
 70
     1
102
RTVSPropertyOp1
 70
     1
102
RTVSPropertyOp2
 70
     1
102
RTVSPropertyOp3
 70
     1
102
RTVSPropertyOp4
 70
     1
102
RTVSPropertyOp5
 70
     1
102
RTVSPropertyOp6
 70
     1
102
RTVSPropertyOp7
 70
     1
102
RTVSPropertyOp8
 70
     1
102
RTVSPropertyOp9
 70
     1
102
RTVSPropertyOp10
 70
     1
102
RTVSPropertyOp11
 70
     1
102
RTVSPropertyOp12
 70
     1
102
RTVSPropertyOp13
 70
     1
102
RTVSPropertyOp14
 70
     1
102
RTVSPropertyOp15
 70
     1
102
RTVSPropertyOp16
 70
     1
102
RTVSPropertyOp17
 70
     1
102
RTVSPropertyOp18
 70
     1
102
RTVSPropertyOp19
 70
     1
102
RTVSPropertyOp20
 70
     1
102
RTVSPropertyOp21
 70
     1
102
RTVSPropertyOp22
 70
     1
102
RTVSPropertyOp23
 70
     1
102
RTVSPropertyOp24
 70
     1
102
RTVSPropertyOp25
 70
     1
102
RTVSPropertyOp26
 70
     1
102
RTVSPropertyOp27
 70
     1
102
RTVSPropertyOp28
 70
     1
102
RTVSPropertyOp29
 70
     1
102
RTVSPropertyOp30
 70
     1
102
RTVSPropertyOp31
 70
     1
102
RTVSPropertyOp32
 70
     1
102
RTVSPropertyOp33
 70
     1
102
RTVSPropertyOp34
 70
     1
102
RTVSPropertyOp35
 70
     1
102
RTVSPropertyOp36
 70
     1
102
RTVSPropertyOp37
 70
     1
102
RTVSPropertyOp38
 70
     1
102
RTVSPropertyOp39
 70
     1
102
RTVSPropertyOp40
 70
     1
102
RTVSPropertyOp41
 70
     1
102
RTVSPropertyOp42
 70
     1
102
RTVSPropertyOp43
 70
     1
102
RTVSPropertyOp44
 70
     1
102
RTVSPropertyOp45
 70
     1
102
RTVSPropertyOp46
 70
     1
102
RTVSPropertyOp47
 70
     1
102
RTVSPropertyOp48
 70
     1
102
RTVSPropertyOp49
 70
     1
102
RTVSPropertyOp50
 70
     1
102
RTVSPropertyOp51
 70
     0
102
RTVSPropertyOp52
 70
     0
102
RTVSPropertyOp53
 70
     1
102
RTVSPropertyOp54
 70
     1
102
RTVSPropertyOp55
 70
     1
102
RTVSPropertyOp56
 70
     1
102
RTVSPropertyOp57
 70
     1
102
RTVSPropertyOp58
 70
     1
102
RTVSPropertyOp59
 70
     1
102
RTVSPropertyOp60
 70
     1
102
RTVSPropertyOp61
 70
     1
102
RTVSPropertyOp62
 70
     1
  0
XRECORD
  5
26B
102
{ACAD_REACTORS
330
26A
102
}
330
26A
100
AcDbXrecord
280
     1
102
RTVSPost2010Prop28
280
     0
102
RTVSPost2010PropOp28
 70
     0
102
RTVSPost2010Prop29
280
     1
102
RTVSPost2010PropOp29
 70
     0
102
RTVSPost2010Prop30
280
     1
102
RTVSPost2010PropOp30
 70
     0
102
RTVSPost2010Prop31
280
     0
102
RTVSPost2010PropOp31
 70
     0
102
RTVSPost2010Prop32
280
     0
102
RTVSPost2010PropOp32
 70
     0
102
RTVSPost2010Prop33
280
     0
102
RTVSPost2010PropOp33
 70
     0
102
RTVSPost2010Prop34
280
     0
102
RTVSPost2010PropOp34
 70
     0
102
RTVSPost2010Prop35
280
     0
102
RTVSPost2010PropOp35
 70
     0
102
RTVSPost2010Prop36
280
     0
102
RTVSPost2010PropOp36
 70
     0
102
RTVSPost2010Prop37
 90
       50
102
RTVSPost2010PropOp37
 70
     0
102
RTVSPost2010Prop38
140
0.0
102
RTVSPost2010PropOp38
 70
     0
102
RTVSPost2010Prop39
140
1.0
102
RTVSPost2010PropOp39
 70
     0
102
RTVSPost2010Prop40
 90
        0
102
RTVSPost2010PropOp40
 70
     0
102
RTVSPost2010Prop41ColorIndex
 90
       18
102
RTVSPost2010Prop41ColorRGB
 90
        0
102
RTVSPost2010PropOp41
 70
     0
102
RTVSPost2010Prop42
 90
       50
102
RTVSPost2010PropOp42
 70
     0
102
RTVSPost2010Prop43
 90
        3
102
RTVSPost2010PropOp43
 70
     0
102
RTVSPost2010Prop44ColorIndex
 90
        5
102
RTVSPost2010Prop44ColorRGB
 90
      255
102
RTVSPost2010PropOp44
 70
     0
102
RTVSPost2010Prop45
280
     0
102
RTVSPost2010PropOp45
 70
     0
102
RTVSPost2010Prop46
 90
       50
102
RTVSPost2010PropOp46
 70
     0
102
RTVSPost2010Prop47
 90
       50
102
RTVSPost2010PropOp47
 70
     0
102
RTVSPost2010Prop48
 90
       50
102
RTVSPost2010PropOp48
 70
     0
102
RTVSPost2010Prop49
280
     0
102
RTVSPost2010PropOp49
 70
     0
102
RTVSPost2010Prop50
 90
       50
102
RTVSPost2010PropOp50
 70
     0
102
RTVSPost2010Prop51ColorIndex
 90
      256
102
RTVSPost2010Prop51ColorRGB
 90
-16777216
102
RTVSPost2010PropOp51
 70
     0
102
RTVSPost2010Prop52
140
1.0
102
RTVSPost2010PropOp52
 70
     0
102
RTVSPost2010Prop53
 90
        2
102
RTVSPost2010PropOp53
 70
     0
102
RTVSPost2010Prop54
  1
strokes_ogs.tif
102
RTVSPost2010PropOp54
 70
     0
102
RTVSPost2010Prop55
280
     0
102
RTVSPost2010PropOp55
 70
     0
102
RTVSPost2010Prop56
140
1.0
102
RTVSPost2010PropOp56
 70
     0
102
RTVSPost2010Prop57
140
1.0
102
RTVSPost2010PropOp57
 70
     0
102
RTVSPropertyOp0
 70
     0
102
RTVSPropertyOp1
 70
     0
102
RTVSPropertyOp2
 70
     0
102
RTVSPropertyOp3
 70
     0
102
RTVSPropertyOp4
 70
     0
102
RTVSPropertyOp5
 70
     0
102
RTVSPropertyOp6
 70
     0
102
RTVSPropertyOp7
 70
     0
102
RTVSPropertyOp8
 70
     0
102
RTVSPropertyOp9
 70
     0
102
RTVSPropertyOp10
 70
     0
102
RTVSPropertyOp11
 70
     0
102
RTVSPropertyOp12
 70
     0
102
RTVSPropertyOp13
 70
     0
102
RTVSPropertyOp14
 70
     2
102
RTVSPropertyOp15
 70
     0
102
RTVSPropertyOp16
 70
     0
102
RTVSPropertyOp17
 70
     0
102
RTVSPropertyOp18
 70
     0
102
RTVSPropertyOp19
 70
     0
102
RTVSPropertyOp20
 70
     0
102
RTVSPropertyOp21
 70
     0
102
RTVSPropertyOp22
 70
     0
102
RTVSPropertyOp23
 70
     0
102
RTVSPropertyOp24
 70
     0
102
RTVSPropertyOp25
 70
     0
102
RTVSPropertyOp26
 70
     0
102
RTVSPropertyOp27
 70
     0
102
RTVSPropertyOp28
 70
     0
102
RTVSPropertyOp29
 70
     0
102
RTVSPropertyOp30
 70
     0
102
RTVSPropertyOp31
 70
     0
102
RTVSPropertyOp32
 70
     0
102
RTVSPropertyOp33
 70
     0
102
RTVSPropertyOp34
 70
     0
102
RTVSPropertyOp35
 70
     0
102
RTVSPropertyOp36
 70
     0
102
RTVSPropertyOp37
 70
     0
102
RTVSPropertyOp38
 70
     0
102
RTVSPropertyOp39
 70
     0
102
RTVSPropertyOp40
 70
     0
102
RTVSPropertyOp41
 70
     0
102
RTVSPropertyOp42
 70
     0
102
RTVSPropertyOp43
 70
     0
102
RTVSPropertyOp44
 70
     0
102
RTVSPropertyOp45
 70
     0
102
RTVSPropertyOp46
 70
     0
102
RTVSPropertyOp47
 70
     0
102
RTVSPropertyOp48
 70
     0
102
RTVSPropertyOp49
 70
     0
102
RTVSPropertyOp50
 70
     0
102
RTVSPropertyOp51
 70
     0
102
RTVSPropertyOp52
 70
     0
102
RTVSPropertyOp53
 70
     0
102
RTVSPropertyOp54
 70
     0
102
RTVSPropertyOp55
 70
     0
102
RTVSPropertyOp56
 70
     0
102
RTVSPropertyOp57
 70
     0
102
RTVSPropertyOp58
 70
     0
102
RTVSPropertyOp59
 70
     0
102
RTVSPropertyOp60
 70
     0
102
RTVSPropertyOp61
 70
     0
102
RTVSPropertyOp62
 70
     0
  0
XRECORD
  5
251
102
{ACAD_REACTORS
330
250
102
}
330
250
100
AcDbXrecord
280
     1
102
RTVSPost2010Prop28
280
     0
102
RTVSPost2010PropOp28
 70
     1
102
RTVSPost2010Prop29
280
     1
102
RTVSPost2010PropOp29
 70
     1
102
RTVSPost2010Prop30
280
     1
102
RTVSPost2010PropOp30
 70
     1
102
RTVSPost2010Prop31
280
     0
102
RTVSPost2010PropOp31
 70
     1
102
RTVSPost2010Prop32
280
     0
102
RTVSPost2010PropOp32
 70
     1
102
RTVSPost2010Prop33
280
     0
102
RTVSPost2010PropOp33
 70
     1
102
RTVSPost2010Prop34
280
     0
102
RTVSPost2010PropOp34
 70
     1
102
RTVSPost2010Prop35
280
     0
102
RTVSPost2010PropOp35
 70
     1
102
RTVSPost2010Prop36
280
     0
102
RTVSPost2010PropOp36
 70
     1
102
RTVSPost2010Prop37
 90
       50
102
RTVSPost2010PropOp37
 70
     1
102
RTVSPost2010Prop38
140
0.0
102
RTVSPost2010PropOp38
 70
     1
102
RTVSPost2010Prop39
140
1.0
102
RTVSPost2010PropOp39
 70
     1
102
RTVSPost2010Prop40
 90
        0
102
RTVSPost2010PropOp40
 70
     1
102
RTVSPost2010Prop41ColorIndex
 90
       18
102
RTVSPost2010Prop41ColorRGB
 90
        0
102
RTVSPost2010PropOp41
 70
     1
102
RTVSPost2010Prop42
 90
       50
102
RTVSPost2010PropOp42
 70
     1
102
RTVSPost2010Prop43
 90
        3
102
RTVSPost2010PropOp43
 70
     1
102
RTVSPost2010Prop44ColorIndex
 90
        5
102
RTVSPost2010Prop44ColorRGB
 90
      255
102
RTVSPost2010PropOp44
 70
     1
102
RTVSPost2010Prop45
280
     0
102
RTVSPost2010PropOp45
 70
     1
102
RTVSPost2010Prop46
 90
       50
102
RTVSPost2010PropOp46
 70
     1
102
RTVSPost2010Prop47
 90
       50
102
RTVSPost2010PropOp47
 70
     1
102
RTVSPost2010Prop48
 90
       50
102
RTVSPost2010PropOp48
 70
     1
102
RTVSPost2010Prop49
280
     0
102
RTVSPost2010PropOp49
 70
     1
102
RTVSPost2010Prop50
 90
       50
102
RTVSPost2010PropOp50
 70
     1
102
RTVSPost2010Prop51ColorIndex
 90
      256
102
RTVSPost2010Prop51ColorRGB
 90
-16777216
102
RTVSPost2010PropOp51
 70
     0
102
RTVSPost2010Prop52
140
1.0
102
RTVSPost2010PropOp52
 70
     0
102
RTVSPost2010Prop53
 90
        2
102
RTVSPost2010PropOp53
 70
     1
102
RTVSPost2010Prop54
  1
strokes_ogs.tif
102
RTVSPost2010PropOp54
 70
     1
102
RTVSPost2010Prop55
280
     0
102
RTVSPost2010PropOp55
 70
     1
102
RTVSPost2010Prop56
140
1.0
102
RTVSPost2010PropOp56
 70
     1
102
RTVSPost2010Prop57
140
1.0
102
RTVSPost2010PropOp57
 70
     1
102
RTVSPropertyOp0
 70
     1
102
RTVSPropertyOp1
 70
     1
102
RTVSPropertyOp2
 70
     1
102
RTVSPropertyOp3
 70
     1
102
RTVSPropertyOp4
 70
     1
102
RTVSPropertyOp5
 70
     1
102
RTVSPropertyOp6
 70
     1
102
RTVSPropertyOp7
 70
     1
102
RTVSPropertyOp8
 70
     1
102
RTVSPropertyOp9
 70
     1
102
RTVSPropertyOp10
 70
     1
102
RTVSPropertyOp11
 70
     1
102
RTVSPropertyOp12
 70
     1
102
RTVSPropertyOp13
 70
     1
102
RTVSPropertyOp14
 70
     1
102
RTVSPropertyOp15
 70
     1
102
RTVSPropertyOp16
 70
     1
102
RTVSPropertyOp17
 70
     1
102
RTVSPropertyOp18
 70
     1
102
RTVSPropertyOp19
 70
     1
102
RTVSPropertyOp20
 70
     1
102
RTVSPropertyOp21
 70
     1
102
RTVSPropertyOp22
 70
     1
102
RTVSPropertyOp23
 70
     1
102
RTVSPropertyOp24
 70
     1
102
RTVSPropertyOp25
 70
     1
102
RTVSPropertyOp26
 70
     1
102
RTVSPropertyOp27
 70
     1
102
RTVSPropertyOp28
 70
     1
102
RTVSPropertyOp29
 70
     1
102
RTVSPropertyOp30
 70
     1
102
RTVSPropertyOp31
 70
     1
102
RTVSPropertyOp32
 70
     1
102
RTVSPropertyOp33
 70
     1
102
RTVSPropertyOp34
 70
     1
102
RTVSPropertyOp35
 70
     1
102
RTVSPropertyOp36
 70
     1
102
RTVSPropertyOp37
 70
     1
102
RTVSPropertyOp38
 70
     1
102
RTVSPropertyOp39
 70
     1
102
RTVSPropertyOp40
 70
     1
102
RTVSPropertyOp41
 70
     1
102
RTVSPropertyOp42
 70
     1
102
RTVSPropertyOp43
 70
     1
102
RTVSPropertyOp44
 70
     1
102
RTVSPropertyOp45
 70
     1
102
RTVSPropertyOp46
 70
     1
102
RTVSPropertyOp47
 70
     1
102
RTVSPropertyOp48
 70
     1
102
RTVSPropertyOp49
 70
     1
102
RTVSPropertyOp50
 70
     1
102
RTVSPropertyOp51
 70
     0
102
RTVSPropertyOp52
 70
     0
102
RTVSPropertyOp53
 70
     1
102
RTVSPropertyOp54
 70
     1
102
RTVSPropertyOp55
 70
     1
102
RTVSPropertyOp56
 70
     1
102
RTVSPropertyOp57
 70
     1
102
RTVSPropertyOp58
 70
     1
102
RTVSPropertyOp59
 70
     1
102
RTVSPropertyOp60
 70
     1
102
RTVSPropertyOp61
 70
     1
102
RTVSPropertyOp62
 70
     1
  0
XRECORD
  5
267
102
{ACAD_REACTORS
330
266
102
}
330
266
100
AcDbXrecord
280
     1
102
RTVSPost2010Prop28
280
     0
102
RTVSPost2010PropOp28
 70
     1
102
RTVSPost2010Prop29
280
     1
102
RTVSPost2010PropOp29
 70
     1
102
RTVSPost2010Prop30
280
     1
102
RTVSPost2010PropOp30
 70
     1
102
RTVSPost2010Prop31
280
     0
102
RTVSPost2010PropOp31
 70
     1
102
RTVSPost2010Prop32
280
     0
102
RTVSPost2010PropOp32
 70
     1
102
RTVSPost2010Prop33
280
     0
102
RTVSPost2010PropOp33
 70
     1
102
RTVSPost2010Prop34
280
     0
102
RTVSPost2010PropOp34
 70
     1
102
RTVSPost2010Prop35
280
     0
102
RTVSPost2010PropOp35
 70
     1
102
RTVSPost2010Prop36
280
     0
102
RTVSPost2010PropOp36
 70
     1
102
RTVSPost2010Prop37
 90
       50
102
RTVSPost2010PropOp37
 70
     1
102
RTVSPost2010Prop38
140
0.0
102
RTVSPost2010PropOp38
 70
     1
102
RTVSPost2010Prop39
140
1.0
102
RTVSPost2010PropOp39
 70
     1
102
RTVSPost2010Prop40
 90
        0
102
RTVSPost2010PropOp40
 70
     1
102
RTVSPost2010Prop41ColorIndex
 90
       18
102
RTVSPost2010Prop41ColorRGB
 90
        0
102
RTVSPost2010PropOp41
 70
     1
102
RTVSPost2010Prop42
 90
       50
102
RTVSPost2010PropOp42
 70
     1
102
RTVSPost2010Prop43
 90
        3
102
RTVSPost2010PropOp43
 70
     1
102
RTVSPost2010Prop44ColorIndex
 90
        5
102
RTVSPost2010Prop44ColorRGB
 90
      255
102
RTVSPost2010PropOp44
 70
     1
102
RTVSPost2010Prop45
280
     0
102
RTVSPost2010PropOp45
 70
     1
102
RTVSPost2010Prop46
 90
       50
102
RTVSPost2010PropOp46
 70
     1
102
RTVSPost2010Prop47
 90
       50
102
RTVSPost2010PropOp47
 70
     1
102
RTVSPost2010Prop48
 90
       50
102
RTVSPost2010PropOp48
 70
     1
102
RTVSPost2010Prop49
280
     0
102
RTVSPost2010PropOp49
 70
     1
102
RTVSPost2010Prop50
 90
       50
102
RTVSPost2010PropOp50
 70
     1
102
RTVSPost2010Prop51ColorIndex
 90
      256
102
RTVSPost2010Prop51ColorRGB
 90
-16777216
102
RTVSPost2010PropOp51
 70
     0
102
RTVSPost2010Prop52
140
1.0
102
RTVSPost2010PropOp52
 70
     0
102
RTVSPost2010Prop53
 90
        2
102
RTVSPost2010PropOp53
 70
     1
102
RTVSPost2010Prop54
  1
strokes_ogs.tif
102
RTVSPost2010PropOp54
 70
     1
102
RTVSPost2010Prop55
280
     0
102
RTVSPost2010PropOp55
 70
     1
102
RTVSPost2010Prop56
140
1.0
102
RTVSPost2010PropOp56
 70
     1
102
RTVSPost2010Prop57
140
1.0
102
RTVSPost2010PropOp57
 70
     1
102
RTVSPropertyOp0
 70
     1
102
RTVSPropertyOp1
 70
     1
102
RTVSPropertyOp2
 70
     1
102
RTVSPropertyOp3
 70
     1
102
RTVSPropertyOp4
 70
     1
102
RTVSPropertyOp5
 70
     1
102
RTVSPropertyOp6
 70
     1
102
RTVSPropertyOp7
 70
     1
102
RTVSPropertyOp8
 70
     1
102
RTVSPropertyOp9
 70
     1
102
RTVSPropertyOp10
 70
     1
102
RTVSPropertyOp11
 70
     1
102
RTVSPropertyOp12
 70
     1
102
RTVSPropertyOp13
 70
     1
102
RTVSPropertyOp14
 70
     1
102
RTVSPropertyOp15
 70
     1
102
RTVSPropertyOp16
 70
     1
102
RTVSPropertyOp17
 70
     1
102
RTVSPropertyOp18
 70
     1
102
RTVSPropertyOp19
 70
     1
102
RTVSPropertyOp20
 70
     1
102
RTVSPropertyOp21
 70
     1
102
RTVSPropertyOp22
 70
     1
102
RTVSPropertyOp23
 70
     1
102
RTVSPropertyOp24
 70
     1
102
RTVSPropertyOp25
 70
     1
102
RTVSPropertyOp26
 70
     1
102
RTVSPropertyOp27
 70
     1
102
RTVSPropertyOp28
 70
     1
102
RTVSPropertyOp29
 70
     1
102
RTVSPropertyOp30
 70
     1
102
RTVSPropertyOp31
 70
     1
102
RTVSPropertyOp32
 70
     1
102
RTVSPropertyOp33
 70
     1
102
RTVSPropertyOp34
 70
     1
102
RTVSPropertyOp35
 70
     1
102
RTVSPropertyOp36
 70
     1
102
RTVSPropertyOp37
 70
     1
102
RTVSPropertyOp38
 70
     1
102
RTVSPropertyOp39
 70
     1
102
RTVSPropertyOp40
 70
     1
102
RTVSPropertyOp41
 70
     1
102
RTVSPropertyOp42
 70
     1
102
RTVSPropertyOp43
 70
     1
102
RTVSPropertyOp44
 70
     1
102
RTVSPropertyOp45
 70
     1
102
RTVSPropertyOp46
 70
     1
102
RTVSPropertyOp47
 70
     1
102
RTVSPropertyOp48
 70
     1
102
RTVSPropertyOp49
 70
     1
102
RTVSPropertyOp50
 70
     1
102
RTVSPropertyOp51
 70
     0
102
RTVSPropertyOp52
 70
     0
102
RTVSPropertyOp53
 70
     1
102
RTVSPropertyOp54
 70
     1
102
RTVSPropertyOp55
 70
     1
102
RTVSPropertyOp56
 70
     1
102
RTVSPropertyOp57
 70
     1
102
RTVSPropertyOp58
 70
     1
102
RTVSPropertyOp59
 70
     1
102
RTVSPropertyOp60
 70
     1
102
RTVSPropertyOp61
 70
     1
102
RTVSPropertyOp62
 70
     1
  0
XRECORD
  5
265
102
{ACAD_REACTORS
330
264
102
}
330
264
100
AcDbXrecord
280
     1
102
RTVSPost2010Prop28
280
     0
102
RTVSPost2010PropOp28
 70
     1
102
RTVSPost2010Prop29
280
     1
102
RTVSPost2010PropOp29
 70
     1
102
RTVSPost2010Prop30
280
     1
102
RTVSPost2010PropOp30
 70
     1
102
RTVSPost2010Prop31
280
     0
102
RTVSPost2010PropOp31
 70
     1
102
RTVSPost2010Prop32
280
     0
102
RTVSPost2010PropOp32
 70
     1
102
RTVSPost2010Prop33
280
     0
102
RTVSPost2010PropOp33
 70
     1
102
RTVSPost2010Prop34
280
     0
102
RTVSPost2010PropOp34
 70
     1
102
RTVSPost2010Prop35
280
     0
102
RTVSPost2010PropOp35
 70
     1
102
RTVSPost2010Prop36
280
     0
102
RTVSPost2010PropOp36
 70
     1
102
RTVSPost2010Prop37
 90
       50
102
RTVSPost2010PropOp37
 70
     1
102
RTVSPost2010Prop38
140
0.0
102
RTVSPost2010PropOp38
 70
     1
102
RTVSPost2010Prop39
140
1.0
102
RTVSPost2010PropOp39
 70
     1
102
RTVSPost2010Prop40
 90
        0
102
RTVSPost2010PropOp40
 70
     1
102
RTVSPost2010Prop41ColorIndex
 90
       18
102
RTVSPost2010Prop41ColorRGB
 90
        0
102
RTVSPost2010PropOp41
 70
     1
102
RTVSPost2010Prop42
 90
       50
102
RTVSPost2010PropOp42
 70
     1
102
RTVSPost2010Prop43
 90
        3
102
RTVSPost2010PropOp43
 70
     1
102
RTVSPost2010Prop44ColorIndex
 90
        5
102
RTVSPost2010Prop44ColorRGB
 90
      255
102
RTVSPost2010PropOp44
 70
     1
102
RTVSPost2010Prop45
280
     0
102
RTVSPost2010PropOp45
 70
     1
102
RTVSPost2010Prop46
 90
       50
102
RTVSPost2010PropOp46
 70
     1
102
RTVSPost2010Prop47
 90
       50
102
RTVSPost2010PropOp47
 70
     1
102
RTVSPost2010Prop48
 90
       50
102
RTVSPost2010PropOp48
 70
     1
102
RTVSPost2010Prop49
280
     0
102
RTVSPost2010PropOp49
 70
     1
102
RTVSPost2010Prop50
 90
       50
102
RTVSPost2010PropOp50
 70
     1
102
RTVSPost2010Prop51ColorIndex
 90
      256
102
RTVSPost2010Prop51ColorRGB
 90
-16777216
102
RTVSPost2010PropOp51
 70
     0
102
RTVSPost2010Prop52
140
1.0
102
RTVSPost2010PropOp52
 70
     0
102
RTVSPost2010Prop53
 90
        2
102
RTVSPost2010PropOp53
 70
     1
102
RTVSPost2010Prop54
  1
strokes_ogs.tif
102
RTVSPost2010PropOp54
 70
     1
102
RTVSPost2010Prop55
280
     0
102
RTVSPost2010PropOp55
 70
     1
102
RTVSPost2010Prop56
140
1.0
102
RTVSPost2010PropOp56
 70
     1
102
RTVSPost2010Prop57
140
1.0
102
RTVSPost2010PropOp57
 70
     1
102
RTVSPropertyOp0
 70
     1
102
RTVSPropertyOp1
 70
     1
102
RTVSPropertyOp2
 70
     1
102
RTVSPropertyOp3
 70
     1
102
RTVSPropertyOp4
 70
     1
102
RTVSPropertyOp5
 70
     1
102
RTVSPropertyOp6
 70
     1
102
RTVSPropertyOp7
 70
     1
102
RTVSPropertyOp8
 70
     1
102
RTVSPropertyOp9
 70
     1
102
RTVSPropertyOp10
 70
     1
102
RTVSPropertyOp11
 70
     1
102
RTVSPropertyOp12
 70
     1
102
RTVSPropertyOp13
 70
     1
102
RTVSPropertyOp14
 70
     1
102
RTVSPropertyOp15
 70
     1
102
RTVSPropertyOp16
 70
     1
102
RTVSPropertyOp17
 70
     1
102
RTVSPropertyOp18
 70
     1
102
RTVSPropertyOp19
 70
     1
102
RTVSPropertyOp20
 70
     1
102
RTVSPropertyOp21
 70
     1
102
RTVSPropertyOp22
 70
     1
102
RTVSPropertyOp23
 70
     1
102
RTVSPropertyOp24
 70
     1
102
RTVSPropertyOp25
 70
     1
102
RTVSPropertyOp26
 70
     1
102
RTVSPropertyOp27
 70
     1
102
RTVSPropertyOp28
 70
     1
102
RTVSPropertyOp29
 70
     1
102
RTVSPropertyOp30
 70
     1
102
RTVSPropertyOp31
 70
     1
102
RTVSPropertyOp32
 70
     1
102
RTVSPropertyOp33
 70
     1
102
RTVSPropertyOp34
 70
     1
102
RTVSPropertyOp35
 70
     1
102
RTVSPropertyOp36
 70
     1
102
RTVSPropertyOp37
 70
     1
102
RTVSPropertyOp38
 70
     1
102
RTVSPropertyOp39
 70
     1
102
RTVSPropertyOp40
 70
     1
102
RTVSPropertyOp41
 70
     1
102
RTVSPropertyOp42
 70
     1
102
RTVSPropertyOp43
 70
     1
102
RTVSPropertyOp44
 70
     1
102
RTVSPropertyOp45
 70
     1
102
RTVSPropertyOp46
 70
     1
102
RTVSPropertyOp47
 70
     1
102
RTVSPropertyOp48
 70
     1
102
RTVSPropertyOp49
 70
     1
102
RTVSPropertyOp50
 70
     1
102
RTVSPropertyOp51
 70
     0
102
RTVSPropertyOp52
 70
     0
102
RTVSPropertyOp53
 70
     1
102
RTVSPropertyOp54
 70
     1
102
RTVSPropertyOp55
 70
     1
102
RTVSPropertyOp56
 70
     1
102
RTVSPropertyOp57
 70
     1
102
RTVSPropertyOp58
 70
     1
102
RTVSPropertyOp59
 70
     1
102
RTVSPropertyOp60
 70
     1
102
RTVSPropertyOp61
 70
     1
102
RTVSPropertyOp62
 70
     1
  0
XRECORD
  5
25F
102
{ACAD_REACTORS
330
25E
102
}
330
25E
100
AcDbXrecord
280
     1
102
RTVSPost2010Prop28
280
     0
102
RTVSPost2010PropOp28
 70
     1
102
RTVSPost2010Prop29
280
     1
102
RTVSPost2010PropOp29
 70
     1
102
RTVSPost2010Prop30
280
     1
102
RTVSPost2010PropOp30
 70
     1
102
RTVSPost2010Prop31
280
     0
102
RTVSPost2010PropOp31
 70
     1
102
RTVSPost2010Prop32
280
     0
102
RTVSPost2010PropOp32
 70
     1
102
RTVSPost2010Prop33
280
     0
102
RTVSPost2010PropOp33
 70
     1
102
RTVSPost2010Prop34
280
     0
102
RTVSPost2010PropOp34
 70
     1
102
RTVSPost2010Prop35
280
     0
102
RTVSPost2010PropOp35
 70
     1
102
RTVSPost2010Prop36
280
     0
102
RTVSPost2010PropOp36
 70
     1
102
RTVSPost2010Prop37
 90
       50
102
RTVSPost2010PropOp37
 70
     1
102
RTVSPost2010Prop38
140
0.0
102
RTVSPost2010PropOp38
 70
     1
102
RTVSPost2010Prop39
140
1.0
102
RTVSPost2010PropOp39
 70
     1
102
RTVSPost2010Prop40
 90
        0
102
RTVSPost2010PropOp40
 70
     1
102
RTVSPost2010Prop41ColorIndex
 90
       18
102
RTVSPost2010Prop41ColorRGB
 90
        0
102
RTVSPost2010PropOp41
 70
     1
102
RTVSPost2010Prop42
 90
       50
102
RTVSPost2010PropOp42
 70
     1
102
RTVSPost2010Prop43
 90
        3
102
RTVSPost2010PropOp43
 70
     1
102
RTVSPost2010Prop44ColorIndex
 90
        5
102
RTVSPost2010Prop44ColorRGB
 90
      255
102
RTVSPost2010PropOp44
 70
     1
102
RTVSPost2010Prop45
280
     0
102
RTVSPost2010PropOp45
 70
     1
102
RTVSPost2010Prop46
 90
       50
102
RTVSPost2010PropOp46
 70
     1
102
RTVSPost2010Prop47
 90
       50
102
RTVSPost2010PropOp47
 70
     1
102
RTVSPost2010Prop48
 90
       50
102
RTVSPost2010PropOp48
 70
     1
102
RTVSPost2010Prop49
280
     0
102
RTVSPost2010PropOp49
 70
     1
102
RTVSPost2010Prop50
 90
       50
102
RTVSPost2010PropOp50
 70
     1
102
RTVSPost2010Prop51ColorIndex
 90
      256
102
RTVSPost2010Prop51ColorRGB
 90
-16777216
102
RTVSPost2010PropOp51
 70
     0
102
RTVSPost2010Prop52
140
1.0
102
RTVSPost2010PropOp52
 70
     0
102
RTVSPost2010Prop53
 90
        2
102
RTVSPost2010PropOp53
 70
     1
102
RTVSPost2010Prop54
  1
strokes_ogs.tif
102
RTVSPost2010PropOp54
 70
     1
102
RTVSPost2010Prop55
280
     0
102
RTVSPost2010PropOp55
 70
     1
102
RTVSPost2010Prop56
140
1.0
102
RTVSPost2010PropOp56
 70
     1
102
RTVSPost2010Prop57
140
1.0
102
RTVSPost2010PropOp57
 70
     1
102
RTVSPropertyOp0
 70
     1
102
RTVSPropertyOp1
 70
     1
102
RTVSPropertyOp2
 70
     1
102
RTVSPropertyOp3
 70
     1
102
RTVSPropertyOp4
 70
     1
102
RTVSPropertyOp5
 70
     1
102
RTVSPropertyOp6
 70
     1
102
RTVSPropertyOp7
 70
     1
102
RTVSPropertyOp8
 70
     1
102
RTVSPropertyOp9
 70
     1
102
RTVSPropertyOp10
 70
     1
102
RTVSPropertyOp11
 70
     1
102
RTVSPropertyOp12
 70
     1
102
RTVSPropertyOp13
 70
     1
102
RTVSPropertyOp14
 70
     1
102
RTVSPropertyOp15
 70
     1
102
RTVSPropertyOp16
 70
     1
102
RTVSPropertyOp17
 70
     1
102
RTVSPropertyOp18
 70
     1
102
RTVSPropertyOp19
 70
     1
102
RTVSPropertyOp20
 70
     1
102
RTVSPropertyOp21
 70
     1
102
RTVSPropertyOp22
 70
     1
102
RTVSPropertyOp23
 70
     1
102
RTVSPropertyOp24
 70
     1
102
RTVSPropertyOp25
 70
     1
102
RTVSPropertyOp26
 70
     1
102
RTVSPropertyOp27
 70
     1
102
RTVSPropertyOp28
 70
     1
102
RTVSPropertyOp29
 70
     1
102
RTVSPropertyOp30
 70
     1
102
RTVSPropertyOp31
 70
     1
102
RTVSPropertyOp32
 70
     1
102
RTVSPropertyOp33
 70
     1
102
RTVSPropertyOp34
 70
     1
102
RTVSPropertyOp35
 70
     1
102
RTVSPropertyOp36
 70
     1
102
RTVSPropertyOp37
 70
     1
102
RTVSPropertyOp38
 70
     1
102
RTVSPropertyOp39
 70
     1
102
RTVSPropertyOp40
 70
     1
102
RTVSPropertyOp41
 70
     1
102
RTVSPropertyOp42
 70
     1
102
RTVSPropertyOp43
 70
     1
102
RTVSPropertyOp44
 70
     1
102
RTVSPropertyOp45
 70
     1
102
RTVSPropertyOp46
 70
     1
102
RTVSPropertyOp47
 70
     1
102
RTVSPropertyOp48
 70
     1
102
RTVSPropertyOp49
 70
     1
102
RTVSPropertyOp50
 70
     1
102
RTVSPropertyOp51
 70
     0
102
RTVSPropertyOp52
 70
     0
102
RTVSPropertyOp53
 70
     1
102
RTVSPropertyOp54
 70
     1
102
RTVSPropertyOp55
 70
     1
102
RTVSPropertyOp56
 70
     1
102
RTVSPropertyOp57
 70
     1
102
RTVSPropertyOp58
 70
     1
102
RTVSPropertyOp59
 70
     1
102
RTVSPropertyOp60
 70
     1
102
RTVSPropertyOp61
 70
     1
102
RTVSPropertyOp62
 70
     1
  0
XRECORD
  5
261
102
{ACAD_REACTORS
330
260
102
}
330
260
100
AcDbXrecord
280
     1
102
RTVSPost2010Prop28
280
     0
102
RTVSPost2010PropOp28
 70
     1
102
RTVSPost2010Prop29
280
     1
102
RTVSPost2010PropOp29
 70
     1
102
RTVSPost2010Prop30
280
     1
102
RTVSPost2010PropOp30
 70
     1
102
RTVSPost2010Prop31
280
     0
102
RTVSPost2010PropOp31
 70
     1
102
RTVSPost2010Prop32
280
     0
102
RTVSPost2010PropOp32
 70
     1
102
RTVSPost2010Prop33
280
     0
102
RTVSPost2010PropOp33
 70
     1
102
RTVSPost2010Prop34
280
     0
102
RTVSPost2010PropOp34
 70
     1
102
RTVSPost2010Prop35
280
     0
102
RTVSPost2010PropOp35
 70
     1
102
RTVSPost2010Prop36
280
     0
102
RTVSPost2010PropOp36
 70
     1
102
RTVSPost2010Prop37
 90
       50
102
RTVSPost2010PropOp37
 70
     1
102
RTVSPost2010Prop38
140
0.0
102
RTVSPost2010PropOp38
 70
     1
102
RTVSPost2010Prop39
140
1.0
102
RTVSPost2010PropOp39
 70
     1
102
RTVSPost2010Prop40
 90
        0
102
RTVSPost2010PropOp40
 70
     1
102
RTVSPost2010Prop41ColorIndex
 90
       18
102
RTVSPost2010Prop41ColorRGB
 90
        0
102
RTVSPost2010PropOp41
 70
     1
102
RTVSPost2010Prop42
 90
       50
102
RTVSPost2010PropOp42
 70
     1
102
RTVSPost2010Prop43
 90
        3
102
RTVSPost2010PropOp43
 70
     1
102
RTVSPost2010Prop44ColorIndex
 90
        5
102
RTVSPost2010Prop44ColorRGB
 90
      255
102
RTVSPost2010PropOp44
 70
     1
102
RTVSPost2010Prop45
280
     0
102
RTVSPost2010PropOp45
 70
     1
102
RTVSPost2010Prop46
 90
       50
102
RTVSPost2010PropOp46
 70
     1
102
RTVSPost2010Prop47
 90
       50
102
RTVSPost2010PropOp47
 70
     1
102
RTVSPost2010Prop48
 90
       50
102
RTVSPost2010PropOp48
 70
     1
102
RTVSPost2010Prop49
280
     0
102
RTVSPost2010PropOp49
 70
     1
102
RTVSPost2010Prop50
 90
       50
102
RTVSPost2010PropOp50
 70
     1
102
RTVSPost2010Prop51ColorIndex
 90
      256
102
RTVSPost2010Prop51ColorRGB
 90
-16777216
102
RTVSPost2010PropOp51
 70
     0
102
RTVSPost2010Prop52
140
1.0
102
RTVSPost2010PropOp52
 70
     0
102
RTVSPost2010Prop53
 90
        2
102
RTVSPost2010PropOp53
 70
     1
102
RTVSPost2010Prop54
  1
strokes_ogs.tif
102
RTVSPost2010PropOp54
 70
     1
102
RTVSPost2010Prop55
280
     0
102
RTVSPost2010PropOp55
 70
     1
102
RTVSPost2010Prop56
140
1.0
102
RTVSPost2010PropOp56
 70
     1
102
RTVSPost2010Prop57
140
1.0
102
RTVSPost2010PropOp57
 70
     1
102
RTVSPropertyOp0
 70
     1
102
RTVSPropertyOp1
 70
     1
102
RTVSPropertyOp2
 70
     1
102
RTVSPropertyOp3
 70
     1
102
RTVSPropertyOp4
 70
     1
102
RTVSPropertyOp5
 70
     1
102
RTVSPropertyOp6
 70
     1
102
RTVSPropertyOp7
 70
     1
102
RTVSPropertyOp8
 70
     1
102
RTVSPropertyOp9
 70
     1
102
RTVSPropertyOp10
 70
     1
102
RTVSPropertyOp11
 70
     1
102
RTVSPropertyOp12
 70
     1
102
RTVSPropertyOp13
 70
     1
102
RTVSPropertyOp14
 70
     1
102
RTVSPropertyOp15
 70
     1
102
RTVSPropertyOp16
 70
     1
102
RTVSPropertyOp17
 70
     1
102
RTVSPropertyOp18
 70
     1
102
RTVSPropertyOp19
 70
     1
102
RTVSPropertyOp20
 70
     1
102
RTVSPropertyOp21
 70
     1
102
RTVSPropertyOp22
 70
     1
102
RTVSPropertyOp23
 70
     1
102
RTVSPropertyOp24
 70
     1
102
RTVSPropertyOp25
 70
     1
102
RTVSPropertyOp26
 70
     1
102
RTVSPropertyOp27
 70
     1
102
RTVSPropertyOp28
 70
     1
102
RTVSPropertyOp29
 70
     1
102
RTVSPropertyOp30
 70
     1
102
RTVSPropertyOp31
 70
     1
102
RTVSPropertyOp32
 70
     1
102
RTVSPropertyOp33
 70
     1
102
RTVSPropertyOp34
 70
     1
102
RTVSPropertyOp35
 70
     1
102
RTVSPropertyOp36
 70
     1
102
RTVSPropertyOp37
 70
     1
102
RTVSPropertyOp38
 70
     1
102
RTVSPropertyOp39
 70
     1
102
RTVSPropertyOp40
 70
     1
102
RTVSPropertyOp41
 70
     1
102
RTVSPropertyOp42
 70
     1
102
RTVSPropertyOp43
 70
     1
102
RTVSPropertyOp44
 70
     1
102
RTVSPropertyOp45
 70
     1
102
RTVSPropertyOp46
 70
     1
102
RTVSPropertyOp47
 70
     1
102
RTVSPropertyOp48
 70
     1
102
RTVSPropertyOp49
 70
     1
102
RTVSPropertyOp50
 70
     1
102
RTVSPropertyOp51
 70
     0
102
RTVSPropertyOp52
 70
     0
102
RTVSPropertyOp53
 70
     1
102
RTVSPropertyOp54
 70
     1
102
RTVSPropertyOp55
 70
     1
102
RTVSPropertyOp56
 70
     1
102
RTVSPropertyOp57
 70
     1
102
RTVSPropertyOp58
 70
     1
102
RTVSPropertyOp59
 70
     1
102
RTVSPropertyOp60
 70
     1
102
RTVSPropertyOp61
 70
     1
102
RTVSPropertyOp62
 70
     1
  0
XRECORD
  5
257
102
{ACAD_REACTORS
330
256
102
}
330
256
100
AcDbXrecord
280
     1
102
RTVSPost2010Prop28
280
     0
102
RTVSPost2010PropOp28
 70
     1
102
RTVSPost2010Prop29
280
     1
102
RTVSPost2010PropOp29
 70
     1
102
RTVSPost2010Prop30
280
     1
102
RTVSPost2010PropOp30
 70
     1
102
RTVSPost2010Prop31
280
     0
102
RTVSPost2010PropOp31
 70
     1
102
RTVSPost2010Prop32
280
     0
102
RTVSPost2010PropOp32
 70
     1
102
RTVSPost2010Prop33
280
     0
102
RTVSPost2010PropOp33
 70
     1
102
RTVSPost2010Prop34
280
     0
102
RTVSPost2010PropOp34
 70
     1
102
RTVSPost2010Prop35
280
     0
102
RTVSPost2010PropOp35
 70
     1
102
RTVSPost2010Prop36
280
     0
102
RTVSPost2010PropOp36
 70
     1
102
RTVSPost2010Prop37
 90
       50
102
RTVSPost2010PropOp37
 70
     1
102
RTVSPost2010Prop38
140
0.0
102
RTVSPost2010PropOp38
 70
     1
102
RTVSPost2010Prop39
140
1.0
102
RTVSPost2010PropOp39
 70
     1
102
RTVSPost2010Prop40
 90
        0
102
RTVSPost2010PropOp40
 70
     1
102
RTVSPost2010Prop41ColorIndex
 90
       18
102
RTVSPost2010Prop41ColorRGB
 90
        0
102
RTVSPost2010PropOp41
 70
     1
102
RTVSPost2010Prop42
 90
       50
102
RTVSPost2010PropOp42
 70
     1
102
RTVSPost2010Prop43
 90
        3
102
RTVSPost2010PropOp43
 70
     1
102
RTVSPost2010Prop44ColorIndex
 90
        5
102
RTVSPost2010Prop44ColorRGB
 90
      255
102
RTVSPost2010PropOp44
 70
     1
102
RTVSPost2010Prop45
280
     0
102
RTVSPost2010PropOp45
 70
     1
102
RTVSPost2010Prop46
 90
       50
102
RTVSPost2010PropOp46
 70
     1
102
RTVSPost2010Prop47
 90
       50
102
RTVSPost2010PropOp47
 70
     1
102
RTVSPost2010Prop48
 90
       50
102
RTVSPost2010PropOp48
 70
     1
102
RTVSPost2010Prop49
280
     0
102
RTVSPost2010PropOp49
 70
     1
102
RTVSPost2010Prop50
 90
       50
102
RTVSPost2010PropOp50
 70
     1
102
RTVSPost2010Prop51ColorIndex
 90
      256
102
RTVSPost2010Prop51ColorRGB
 90
-16777216
102
RTVSPost2010PropOp51
 70
     0
102
RTVSPost2010Prop52
140
1.0
102
RTVSPost2010PropOp52
 70
     0
102
RTVSPost2010Prop53
 90
        2
102
RTVSPost2010PropOp53
 70
     1
102
RTVSPost2010Prop54
  1
strokes_ogs.tif
102
RTVSPost2010PropOp54
 70
     1
102
RTVSPost2010Prop55
280
     0
102
RTVSPost2010PropOp55
 70
     1
102
RTVSPost2010Prop56
140
1.0
102
RTVSPost2010PropOp56
 70
     1
102
RTVSPost2010Prop57
140
1.0
102
RTVSPost2010PropOp57
 70
     1
102
RTVSPropertyOp0
 70
     1
102
RTVSPropertyOp1
 70
     1
102
RTVSPropertyOp2
 70
     1
102
RTVSPropertyOp3
 70
     1
102
RTVSPropertyOp4
 70
     1
102
RTVSPropertyOp5
 70
     1
102
RTVSPropertyOp6
 70
     1
102
RTVSPropertyOp7
 70
     1
102
RTVSPropertyOp8
 70
     1
102
RTVSPropertyOp9
 70
     1
102
RTVSPropertyOp10
 70
     1
102
RTVSPropertyOp11
 70
     1
102
RTVSPropertyOp12
 70
     1
102
RTVSPropertyOp13
 70
     1
102
RTVSPropertyOp14
 70
     1
102
RTVSPropertyOp15
 70
     1
102
RTVSPropertyOp16
 70
     1
102
RTVSPropertyOp17
 70
     1
102
RTVSPropertyOp18
 70
     1
102
RTVSPropertyOp19
 70
     1
102
RTVSPropertyOp20
 70
     1
102
RTVSPropertyOp21
 70
     1
102
RTVSPropertyOp22
 70
     1
102
RTVSPropertyOp23
 70
     1
102
RTVSPropertyOp24
 70
     1
102
RTVSPropertyOp25
 70
     1
102
RTVSPropertyOp26
 70
     1
102
RTVSPropertyOp27
 70
     1
102
RTVSPropertyOp28
 70
     1
102
RTVSPropertyOp29
 70
     1
102
RTVSPropertyOp30
 70
     1
102
RTVSPropertyOp31
 70
     1
102
RTVSPropertyOp32
 70
     1
102
RTVSPropertyOp33
 70
     1
102
RTVSPropertyOp34
 70
     1
102
RTVSPropertyOp35
 70
     1
102
RTVSPropertyOp36
 70
     1
102
RTVSPropertyOp37
 70
     1
102
RTVSPropertyOp38
 70
     1
102
RTVSPropertyOp39
 70
     1
102
RTVSPropertyOp40
 70
     1
102
RTVSPropertyOp41
 70
     1
102
RTVSPropertyOp42
 70
     1
102
RTVSPropertyOp43
 70
     1
102
RTVSPropertyOp44
 70
     1
102
RTVSPropertyOp45
 70
     1
102
RTVSPropertyOp46
 70
     1
102
RTVSPropertyOp47
 70
     1
102
RTVSPropertyOp48
 70
     1
102
RTVSPropertyOp49
 70
     1
102
RTVSPropertyOp50
 70
     1
102
RTVSPropertyOp51
 70
     0
102
RTVSPropertyOp52
 70
     0
102
RTVSPropertyOp53
 70
     1
102
RTVSPropertyOp54
 70
     1
102
RTVSPropertyOp55
 70
     1
102
RTVSPropertyOp56
 70
     1
102
RTVSPropertyOp57
 70
     1
102
RTVSPropertyOp58
 70
     1
102
RTVSPropertyOp59
 70
     1
102
RTVSPropertyOp60
 70
     1
102
RTVSPropertyOp61
 70
     1
102
RTVSPropertyOp62
 70
     1
  0
XRECORD
  5
24B
102
{ACAD_REACTORS
330
24A
102
}
330
24A
100
AcDbXrecord
280
     1
102
RTVSPost2010Prop28
280
     0
102
RTVSPost2010PropOp28
 70
     1
102
RTVSPost2010Prop29
280
     1
102
RTVSPost2010PropOp29
 70
     1
102
RTVSPost2010Prop30
280
     1
102
RTVSPost2010PropOp30
 70
     1
102
RTVSPost2010Prop31
280
     0
102
RTVSPost2010PropOp31
 70
     1
102
RTVSPost2010Prop32
280
     0
102
RTVSPost2010PropOp32
 70
     1
102
RTVSPost2010Prop33
280
     0
102
RTVSPost2010PropOp33
 70
     1
102
RTVSPost2010Prop34
280
     0
102
RTVSPost2010PropOp34
 70
     1
102
RTVSPost2010Prop35
280
     0
102
RTVSPost2010PropOp35
 70
     1
102
RTVSPost2010Prop36
280
     0
102
RTVSPost2010PropOp36
 70
     1
102
RTVSPost2010Prop37
 90
       50
102
RTVSPost2010PropOp37
 70
     1
102
RTVSPost2010Prop38
140
0.0
102
RTVSPost2010PropOp38
 70
     1
102
RTVSPost2010Prop39
140
1.0
102
RTVSPost2010PropOp39
 70
     1
102
RTVSPost2010Prop40
 90
        0
102
RTVSPost2010PropOp40
 70
     1
102
RTVSPost2010Prop41ColorIndex
 90
       18
102
RTVSPost2010Prop41ColorRGB
 90
        0
102
RTVSPost2010PropOp41
 70
     1
102
RTVSPost2010Prop42
 90
       50
102
RTVSPost2010PropOp42
 70
     1
102
RTVSPost2010Prop43
 90
        3
102
RTVSPost2010PropOp43
 70
     1
102
RTVSPost2010Prop44ColorIndex
 90
        5
102
RTVSPost2010Prop44ColorRGB
 90
      255
102
RTVSPost2010PropOp44
 70
     1
102
RTVSPost2010Prop45
280
     0
102
RTVSPost2010PropOp45
 70
     1
102
RTVSPost2010Prop46
 90
       50
102
RTVSPost2010PropOp46
 70
     1
102
RTVSPost2010Prop47
 90
       50
102
RTVSPost2010PropOp47
 70
     1
102
RTVSPost2010Prop48
 90
       50
102
RTVSPost2010PropOp48
 70
     1
102
RTVSPost2010Prop49
280
     0
102
RTVSPost2010PropOp49
 70
     1
102
RTVSPost2010Prop50
 90
       50
102
RTVSPost2010PropOp50
 70
     1
102
RTVSPost2010Prop51ColorIndex
 90
      256
102
RTVSPost2010Prop51ColorRGB
 90
-16777216
102
RTVSPost2010PropOp51
 70
     0
102
RTVSPost2010Prop52
140
1.0
102
RTVSPost2010PropOp52
 70
     0
102
RTVSPost2010Prop53
 90
        2
102
RTVSPost2010PropOp53
 70
     1
102
RTVSPost2010Prop54
  1
strokes_ogs.tif
102
RTVSPost2010PropOp54
 70
     1
102
RTVSPost2010Prop55
280
     0
102
RTVSPost2010PropOp55
 70
     1
102
RTVSPost2010Prop56
140
1.0
102
RTVSPost2010PropOp56
 70
     1
102
RTVSPost2010Prop57
140
1.0
102
RTVSPost2010PropOp57
 70
     1
102
RTVSPropertyOp0
 70
     1
102
RTVSPropertyOp1
 70
     1
102
RTVSPropertyOp2
 70
     1
102
RTVSPropertyOp3
 70
     1
102
RTVSPropertyOp4
 70
     1
102
RTVSPropertyOp5
 70
     1
102
RTVSPropertyOp6
 70
     1
102
RTVSPropertyOp7
 70
     1
102
RTVSPropertyOp8
 70
     1
102
RTVSPropertyOp9
 70
     1
102
RTVSPropertyOp10
 70
     1
102
RTVSPropertyOp11
 70
     1
102
RTVSPropertyOp12
 70
     1
102
RTVSPropertyOp13
 70
     1
102
RTVSPropertyOp14
 70
     1
102
RTVSPropertyOp15
 70
     1
102
RTVSPropertyOp16
 70
     1
102
RTVSPropertyOp17
 70
     1
102
RTVSPropertyOp18
 70
     1
102
RTVSPropertyOp19
 70
     1
102
RTVSPropertyOp20
 70
     1
102
RTVSPropertyOp21
 70
     1
102
RTVSPropertyOp22
 70
     1
102
RTVSPropertyOp23
 70
     1
102
RTVSPropertyOp24
 70
     1
102
RTVSPropertyOp25
 70
     1
102
RTVSPropertyOp26
 70
     1
102
RTVSPropertyOp27
 70
     1
102
RTVSPropertyOp28
 70
     1
102
RTVSPropertyOp29
 70
     1
102
RTVSPropertyOp30
 70
     1
102
RTVSPropertyOp31
 70
     1
102
RTVSPropertyOp32
 70
     1
102
RTVSPropertyOp33
 70
     1
102
RTVSPropertyOp34
 70
     1
102
RTVSPropertyOp35
 70
     1
102
RTVSPropertyOp36
 70
     1
102
RTVSPropertyOp37
 70
     1
102
RTVSPropertyOp38
 70
     1
102
RTVSPropertyOp39
 70
     1
102
RTVSPropertyOp40
 70
     1
102
RTVSPropertyOp41
 70
     1
102
RTVSPropertyOp42
 70
     1
102
RTVSPropertyOp43
 70
     1
102
RTVSPropertyOp44
 70
     1
102
RTVSPropertyOp45
 70
     1
102
RTVSPropertyOp46
 70
     1
102
RTVSPropertyOp47
 70
     1
102
RTVSPropertyOp48
 70
     1
102
RTVSPropertyOp49
 70
     1
102
RTVSPropertyOp50
 70
     1
102
RTVSPropertyOp51
 70
     0
102
RTVSPropertyOp52
 70
     0
102
RTVSPropertyOp53
 70
     1
102
RTVSPropertyOp54
 70
     1
102
RTVSPropertyOp55
 70
     1
102
RTVSPropertyOp56
 70
     1
102
RTVSPropertyOp57
 70
     1
102
RTVSPropertyOp58
 70
     1
102
RTVSPropertyOp59
 70
     1
102
RTVSPropertyOp60
 70
     1
102
RTVSPropertyOp61
 70
     1
102
RTVSPropertyOp62
 70
     1
  0
XRECORD
  5
263
102
{ACAD_REACTORS
330
262
102
}
330
262
100
AcDbXrecord
280
     1
102
RTVSPost2010Prop28
280
     0
102
RTVSPost2010PropOp28
 70
     1
102
RTVSPost2010Prop29
280
     1
102
RTVSPost2010PropOp29
 70
     1
102
RTVSPost2010Prop30
280
     1
102
RTVSPost2010PropOp30
 70
     1
102
RTVSPost2010Prop31
280
     0
102
RTVSPost2010PropOp31
 70
     1
102
RTVSPost2010Prop32
280
     0
102
RTVSPost2010PropOp32
 70
     1
102
RTVSPost2010Prop33
280
     0
102
RTVSPost2010PropOp33
 70
     1
102
RTVSPost2010Prop34
280
     0
102
RTVSPost2010PropOp34
 70
     1
102
RTVSPost2010Prop35
280
     0
102
RTVSPost2010PropOp35
 70
     1
102
RTVSPost2010Prop36
280
     0
102
RTVSPost2010PropOp36
 70
     1
102
RTVSPost2010Prop37
 90
       50
102
RTVSPost2010PropOp37
 70
     1
102
RTVSPost2010Prop38
140
0.0
102
RTVSPost2010PropOp38
 70
     1
102
RTVSPost2010Prop39
140
1.0
102
RTVSPost2010PropOp39
 70
     1
102
RTVSPost2010Prop40
 90
        0
102
RTVSPost2010PropOp40
 70
     1
102
RTVSPost2010Prop41ColorIndex
 90
       18
102
RTVSPost2010Prop41ColorRGB
 90
        0
102
RTVSPost2010PropOp41
 70
     1
102
RTVSPost2010Prop42
 90
       50
102
RTVSPost2010PropOp42
 70
     1
102
RTVSPost2010Prop43
 90
        3
102
RTVSPost2010PropOp43
 70
     1
102
RTVSPost2010Prop44ColorIndex
 90
        5
102
RTVSPost2010Prop44ColorRGB
 90
      255
102
RTVSPost2010PropOp44
 70
     1
102
RTVSPost2010Prop45
280
     0
102
RTVSPost2010PropOp45
 70
     1
102
RTVSPost2010Prop46
 90
       50
102
RTVSPost2010PropOp46
 70
     1
102
RTVSPost2010Prop47
 90
       50
102
RTVSPost2010PropOp47
 70
     1
102
RTVSPost2010Prop48
 90
       50
102
RTVSPost2010PropOp48
 70
     1
102
RTVSPost2010Prop49
280
     0
102
RTVSPost2010PropOp49
 70
     1
102
RTVSPost2010Prop50
 90
       50
102
RTVSPost2010PropOp50
 70
     1
102
RTVSPost2010Prop51ColorIndex
 90
      256
102
RTVSPost2010Prop51ColorRGB
 90
-16777216
102
RTVSPost2010PropOp51
 70
     0
102
RTVSPost2010Prop52
140
1.0
102
RTVSPost2010PropOp52
 70
     0
102
RTVSPost2010Prop53
 90
        2
102
RTVSPost2010PropOp53
 70
     1
102
RTVSPost2010Prop54
  1
strokes_ogs.tif
102
RTVSPost2010PropOp54
 70
     1
102
RTVSPost2010Prop55
280
     0
102
RTVSPost2010PropOp55
 70
     1
102
RTVSPost2010Prop56
140
1.0
102
RTVSPost2010PropOp56
 70
     1
102
RTVSPost2010Prop57
140
1.0
102
RTVSPost2010PropOp57
 70
     1
102
RTVSPropertyOp0
 70
     1
102
RTVSPropertyOp1
 70
     1
102
RTVSPropertyOp2
 70
     1
102
RTVSPropertyOp3
 70
     1
102
RTVSPropertyOp4
 70
     1
102
RTVSPropertyOp5
 70
     1
102
RTVSPropertyOp6
 70
     1
102
RTVSPropertyOp7
 70
     1
102
RTVSPropertyOp8
 70
     1
102
RTVSPropertyOp9
 70
     1
102
RTVSPropertyOp10
 70
     1
102
RTVSPropertyOp11
 70
     1
102
RTVSPropertyOp12
 70
     1
102
RTVSPropertyOp13
 70
     1
102
RTVSPropertyOp14
 70
     1
102
RTVSPropertyOp15
 70
     1
102
RTVSPropertyOp16
 70
     1
102
RTVSPropertyOp17
 70
     1
102
RTVSPropertyOp18
 70
     1
102
RTVSPropertyOp19
 70
     1
102
RTVSPropertyOp20
 70
     1
102
RTVSPropertyOp21
 70
     1
102
RTVSPropertyOp22
 70
     1
102
RTVSPropertyOp23
 70
     1
102
RTVSPropertyOp24
 70
     1
102
RTVSPropertyOp25
 70
     1
102
RTVSPropertyOp26
 70
     1
102
RTVSPropertyOp27
 70
     1
102
RTVSPropertyOp28
 70
     1
102
RTVSPropertyOp29
 70
     1
102
RTVSPropertyOp30
 70
     1
102
RTVSPropertyOp31
 70
     1
102
RTVSPropertyOp32
 70
     1
102
RTVSPropertyOp33
 70
     1
102
RTVSPropertyOp34
 70
     1
102
RTVSPropertyOp35
 70
     1
102
RTVSPropertyOp36
 70
     1
102
RTVSPropertyOp37
 70
     1
102
RTVSPropertyOp38
 70
     1
102
RTVSPropertyOp39
 70
     1
102
RTVSPropertyOp40
 70
     1
102
RTVSPropertyOp41
 70
     1
102
RTVSPropertyOp42
 70
     1
102
RTVSPropertyOp43
 70
     1
102
RTVSPropertyOp44
 70
     1
102
RTVSPropertyOp45
 70
     1
102
RTVSPropertyOp46
 70
     1
102
RTVSPropertyOp47
 70
     1
102
RTVSPropertyOp48
 70
     1
102
RTVSPropertyOp49
 70
     1
102
RTVSPropertyOp50
 70
     1
102
RTVSPropertyOp51
 70
     0
102
RTVSPropertyOp52
 70
     0
102
RTVSPropertyOp53
 70
     1
102
RTVSPropertyOp54
 70
     1
102
RTVSPropertyOp55
 70
     1
102
RTVSPropertyOp56
 70
     1
102
RTVSPropertyOp57
 70
     1
102
RTVSPropertyOp58
 70
     1
102
RTVSPropertyOp59
 70
     1
102
RTVSPropertyOp60
 70
     1
102
RTVSPropertyOp61
 70
     1
102
RTVSPropertyOp62
 70
     1
  0
ENDSEC
  0
EOF
